<?xml version="1.0" standalone="no"?>
<!DOCTYPE svg PUBLIC "-//W3C//DTD SVG 1.1//EN" "http://www.w3.org/Graphics/SVG/1.1/DTD/svg11.dtd" >
<!--
2013-9-30: Created.
-->
<svg>
<metadata>
Created by iconfont
</metadata>
<defs>

<font id="iconfont" horiz-adv-x="1024" >
  <font-face
    font-family="iconfont"
    font-weight="500"
    font-stretch="normal"
    units-per-em="1024"
    ascent="896"
    descent="-128"
  />
    <missing-glyph />
    
    <glyph glyph-name="double-extend-left" unicode="&#58979;" d="M518.4 364.79999999999995L518.4 57.60000000000002l-428.8 307.2 428.8 300.8zM896 364.80000000999996L896 57.60000001000003l-428.8 307.19999999 428.8 300.8z"  horiz-adv-x="1024" />

    
    <glyph glyph-name="shuangjiantou1" unicode="&#58980;" d="M505.6 403.2L505.6 710.4l428.8-307.2-428.8-300.8zM128 403.19999999L128 710.39999999l428.8-307.19999999-428.8-300.8z"  horiz-adv-x="1024" />

    
    <glyph glyph-name="shuangjiantou" unicode="&#58977;" d="M405.36576 803.92704L649.91232 803.92704c0.2304-4.2496-0.4096-8.32512-3.66592-11.82208L238.08 386.56 646.2464-18.979840009999975c3.26144-3.49696 3.90144-7.57248 3.66592-11.82207999l-244.54656 0-389.87776 387.37408c-7.57248 8.2688-10.8288 19.21536-10.31168 29.98272-0.52224 10.77248 2.7392 21.71904 10.31168 29.98784l389.87776 387.38432z m76.79999999-417.36704c-0.52736 10.77248 2.73408 21.71904 10.30656001 29.98784l389.87776 387.37408L1007.65184 803.92192c0.2304-4.2496-0.46592-8.32512-3.66591999-11.82208l-408.16640001-405.54496 408.1664-405.53472001c3.26144-3.49696 3.90144-7.57248 3.66592-11.82207999l-125.30176 0-389.87776 387.37408c-7.57248 8.27392-10.83392 19.21536-10.30656001 29.98784z"  horiz-adv-x="1024" />

    
    <glyph glyph-name="you2" unicode="&#58978;" d="M618.63424-35.927040000000034H374.08768c-0.2304 4.2496 0.4096 8.32512 3.66592 11.82208L785.92 381.44000000000005 377.7536 786.97984c-3.26144 3.49696-3.90144 7.57248-3.66592 11.82208h244.54656l389.87776-387.37408c7.57248-8.2688 10.8288-19.21536 10.31168-29.98272 0.52224-10.77248-2.7392-21.71904-10.31168-29.98784l-389.87776-387.38432z m-76.8 417.36704c0.52736-10.77248-2.73408-21.71904-10.30656-29.98784l-389.87776-387.37408H16.34816c-0.2304 4.2496 0.46592 8.32512 3.66592 11.82208l408.1664 405.54496-408.1664 405.53472c-3.26144 3.49696-3.90144 7.57248-3.66592 11.82208h125.30176l389.87776-387.37408c7.57248-8.27392 10.83392-19.21536 10.30656-29.98784z"  horiz-adv-x="1024" />

    
    <glyph glyph-name="liucheng1" unicode="&#58974;" d="M49.9712 145.01205332999996c-21.40842667 0-39.10314667-17.69472-39.10314667-39.10314666V-11.40053333000003c0-21.40842667 17.69472-39.10314667 39.10314667-39.10314667H232.37973333c21.40842667 0 39.10314667 17.69472 39.10314667 39.10314667v117.30944c0 21.40842667-17.69472 39.10314667-39.10314667 39.10314666H49.9712z m369.40458667 0c-21.40842667 0-39.10314667-17.69472-39.10314667-39.10314666V-11.40053333000003c0-21.40842667 17.69472-39.10314667 39.10314667-39.10314667h182.40853333c21.40842667 0 39.10314667 17.69472 39.10314667 39.10314667v117.30944c0 21.40842667-17.69472 39.10314667-39.10314667 39.10314666h-182.40853333z m369.18613333 0c-21.40842667 0-39.10314667-17.69472-39.10314667-39.10314666V-11.40053333000003c0-21.40842667 17.69472-39.10314667 39.10314667-39.10314667h182.40853333c21.40842667 0 39.10314667 17.69472 39.10314667 39.10314667v117.30944c0 21.40842667-17.69472 39.10314667-39.10314667 39.10314666h-182.40853333zM276.50730667 818.28522667c-38.88469333 0-70.12352-31.23882667-70.12352-69.90506667v-185.90378667c0-38.66624 31.23882667-69.90506667 70.12352-69.90506666h467.92704c38.88469333 0 70.12352 31.23882667 70.12352 69.90506666V748.3801599999999c0 38.66624-31.23882667 69.90506667-70.12352 69.90506667H276.50730667z m190.49130666-369.18613334V362.15466667h-369.18613333v-173.6704h86.94442667v86.94442666h282.46016v-86.94442666h86.94442666v86.94442666h282.46016v-86.94442666h86.94442667V362.15466667h-369.18613333v86.94442666h-87.38133334z m0 0"  horiz-adv-x="1024" />

    
    <glyph glyph-name="biaodan" unicode="&#58976;" d="M70.4 481.5h203.5c16.6 0 30-13.4 30-30v-154.1c0-16.6-13.4-30-30-30H70.4c-16.6 0-30 13.4-30 30V451.5c0 16.6 13.5 30 30 30z m335.4-285.9h213.1c16.6 0 30-13.4 30-30v-175.7c0-16.6-13.4-30-30-30H405.8c-16.6 0-30 13.4-30 30V165.6c0 16.5 13.4 30 30 30z m0 285.9h213.1c16.6 0 30-13.4 30-30v-154.1c0-16.6-13.4-30-30-30H405.8c-16.6 0-30 13.4-30 30V451.5c0 16.6 13.4 30 30 30z m344.9-285.9h203.5c16.6 0 30-13.4 30-30v-175.7c0-16.6-13.4-30-30-30H750.7c-16.6 0-30 13.4-30 30V165.6c0 16.5 13.4 30 30 30z m-680.3 0h203.5c16.6 0 30-13.4 30-30v-175.7c0-16.6-13.4-30-30-30H70.4c-16.6 0-30 13.4-30 30V165.6c0 16.5 13.5 30 30 30z m0 612.9h883.8c16.6 0 30-13.4 30-30v-195.2c0-16.6-13.4-30-30-30H70.4c-16.6 0-30 13.4-30 30V778.5c0 16.6 13.5 30 30 30z m680.3-327h203.5c16.6 0 30-13.4 30-30v-154.1c0-16.6-13.4-30-30-30H750.7c-16.6 0-30 13.4-30 30V451.5c0 16.6 13.4 30 30 30z"  horiz-adv-x="1024" />

    
    <glyph glyph-name="shezhi" unicode="&#58999;" d="M594.466 441.412c0 37.137 23.484 68.813 56.252 81.374-7.646 30.584-19.66 59.529-35.499 86.29-32.222-14.2-70.997-8.193-97.212 18.022-26.214 26.214-32.221 64.99-18.022 97.211a363.318 363.318 0 0 1-86.289 35.499c-12.561-32.768-44.237-56.252-81.374-56.252-37.137 0-68.813 23.484-81.374 56.252-30.583-7.646-59.528-19.66-86.289-35.499 14.2-32.222 8.192-70.997-18.022-97.211s-64.99-32.222-97.212-18.023c-15.838-26.76-27.853-55.705-35.499-86.289 32.768-12.56 56.252-44.237 56.252-81.374 0-37.137-23.484-68.813-56.252-81.374 7.646-30.583 19.661-59.528 35.5-86.289 32.22 14.2 70.996 8.192 97.21-18.022 26.215-26.214 32.223-64.99 18.023-97.212 26.76-15.838 55.706-27.853 86.29-35.498 12.56 32.768 44.236 56.251 81.373 56.251 37.137 0 68.813-23.483 81.374-56.251 30.583 7.645 59.529 19.66 86.29 35.498-14.2 32.222-8.193 70.998 18.021 97.212 26.215 26.214 64.99 32.222 97.212 18.022 15.838 26.76 27.853 55.706 35.499 86.29-32.768 12.56-56.252 43.69-56.252 81.373z m-262.144-87.381c-48.06 0-87.381 39.322-87.381 87.381s39.321 87.382 87.381 87.382 87.381-39.322 87.381-87.382-39.321-87.381-87.38-87.381z m359.356 369.732h318.396v-80.281H691.678z m0-323.31h318.396v-80.282H691.678zM175.582 77.14h834.492v-80.281H175.582z"  horiz-adv-x="1024" />

    
    <glyph glyph-name="book" unicode="&#59324;" d="M838.4 737.6l-1.6 86.4c0 20.8-17.6 38.4-38.4 38.4H228.8c-52.8 0-97.6-43.2-97.6-96v-758.4c0-56 46.4-102.4 102.4-102.4h590.4c38.4 0 70.4 32 70.4 70.4V683.2c-1.6 30.4-25.6 54.4-56 54.4z m-345.6-400H294.4c-20.8 0-36.8 16-36.8 36.8 0 20.8 16 36.8 36.8 36.8h196.8c20.8 0 36.8-16 36.8-36.8 0-20.8-16-36.8-35.2-36.8z m155.2 156.8H292.8c-20.8 0-36.8 16-36.8 36.8 0 20.8 16 36.8 36.8 36.8h355.2c20.8 0 36.8-16 36.8-36.8 0-20.8-16-36.8-36.8-36.8z m116.8 248H206.4V766.4c0 12.8 9.6 22.4 22.4 22.4h536v-46.4z"  horiz-adv-x="1024" />

    
    <glyph glyph-name="shanchu" unicode="&#59064;" d="M512 896a511.402667 511.402667 0 0 1-512-510.72V384c0-283.306667 228.693333-512 512-512s512 228.693333 512 512-228.693333 512-512 512m215.04-727.04a37.205333 37.205333 0 0 0-51.2 0L512 332.8 348.16 168.96a37.205333 37.205333 0 0 0-51.2 0 37.205333 37.205333 0 0 0 0 51.2L460.8 384 296.96 547.84a37.205333 37.205333 0 0 0 0 51.2 37.205333 37.205333 0 0 0 51.2 0L512 435.2l163.84 163.84a37.205333 37.205333 0 0 0 51.2 0c13.653333-14.336 13.653333-36.864 0-51.2L563.2 384l163.84-163.84a32 32 0 0 0 0-51.2"  horiz-adv-x="1024" />

    
    <glyph glyph-name="bianji1" unicode="&#58973;" d="M128 160v-160h160l471.893 471.893-160 160L128 160z m785.493 465.493l-160 160L645.547 677.12l160-160 107.946 108.373z"  horiz-adv-x="1024" />

    
    <glyph glyph-name="book-copy" unicode="&#59394;" d="M238.0411807 855.32700047h648.07462584c38.29531837 0 58.91587557-20.62055582 58.91587556-58.9158742v-706.9905014c0-11.78317456-5.89158797-23.56635051-14.72896924-32.40373177l-50.07849291-50.07849432c-2.9457933-2.9457933-8.83738127-5.89158797-8.83738127-2.94579329-2.9457933 0-2.9457933 5.89158797-2.94579469 8.83738127v745.28581978c0 5.89158797-2.9457933 8.83738127-5.89158658 14.72896923s-8.83738127 5.89158797-14.72896925 5.89158796h-550.86343187c-11.78317456 0-23.56635051-5.89158797-32.40373178-14.72896922l-50.07849431-50.07849431c-2.9457933-2.9457933-5.89158797-8.83738127-2.94579329-8.83738127 0-2.9457933 5.89158797-2.9457933 8.83738126-2.9457933h550.86343188c5.89158797 0 8.83738127-2.9457933 14.72896925-5.89158798s5.89158797-8.83738127 5.89158796-14.72896785v-745.28582116c0-5.89158797-2.9457933-8.83738127-5.89158796-14.72896786s-8.83738127-5.89158797-14.72896925-5.89158796H99.58887373c-5.89158797 0-8.83738127 2.9457933-14.72896786 5.89158796s-5.89158797 8.83738127-5.89158797 14.72896786v765.90637699c0 11.78317456 5.89158797 23.56635051 14.72896924 32.40373178l108.99436851 108.99436851c8.83738127 5.89158797 20.62055582 11.78317456 35.34952505 11.78317455z"  horiz-adv-x="1024" />

    
    <glyph glyph-name="xinjianleibie" unicode="&#59061;" d="M806.4 896h-704C44.8 896 0 851.2 0 793.6v-710.4c0-57.6 44.8-102.4 102.4-102.4h460.8c0 44.8 19.2 140.8 70.4 217.6H204.8V294.4H704v-19.2c51.2 38.4 121.6 57.6 204.8 51.2V793.6c0 57.6-44.8 102.4-102.4 102.4zM704 428.8H204.8V518.4H704v-89.6z m0 217.6H204.8V736H704v-89.6zM768 390.4c-140.8 0-256-115.2-256-256s115.2-256 256-256 256 115.2 256 256-115.2 256-256 256z m128-294.4h-96V0c0-19.2-12.8-32-32-32s-32 12.8-32 32v96H640c-19.2 0-32 12.8-32 32s12.8 32 32 32h96V256c0 19.2 12.8 32 32 32s32-12.8 32-32v-96H896c19.2 0 32-12.8 32-32s-19.2-32-32-32z"  horiz-adv-x="1024" />

    
    <glyph glyph-name="refresh" unicode="&#58966;" d="M888.23000001 503.917L718.385 503.91699999c-21.66789999 0-39.1942 17.5561-39.1942 39.19610001 0 21.6382 17.5273 39.1942 39.1942 39.19419999l68.1819 1e-8c-61.5039 86.9065-162.641 143.715-277.223 143.715-187.607 0-339.692-152.086-339.692-339.69 0-187.606 152.086-339.691 339.692-339.691 187.606 0 339.691 152.086 339.691 339.691 0 21.6382 17.5264 39.1942 39.19329999 39.1942 21.63999999 0 39.1971-17.5561 39.19710001-39.1942 0-230.899-187.2-418.082-418.082-418.082-230.88499999 0-418.08299999 187.182-418.083 418.082 0 230.898 187.198 418.081 418.083 418.08100001 140.127 0 263.895-69.0866 339.691-174.93500001l0 70.4143c0 21.63999999 17.5264 39.1952 39.1933 39.1952 21.63999999 0 39.1971-17.5552 39.1971-39.1952l0-156.78C927.427 521.473 909.868 503.917 888.23000001 503.917Z"  horiz-adv-x="1024" />

    
    <glyph glyph-name="bianji" unicode="&#58967;" d="M318.155206 200.82074a53.749943 53.749943 0 0 1 76.019919 0l588.529374 588.444374a53.921943 53.921943 0 0 1 0 76.189919l-0.17 0.169999a53.749943 53.749943 0 0 1-75.933919-0.169999L318.070206 277.011659a53.921943 53.921943 0 0 1 0-76.189919zM970.077512 464.797459h-0.255999a53.665943 53.665943 0 0 1-53.664943-53.663943V-20.239025H107.84443V788.327115l431.371541-0.17a53.749943 53.749943 0 0 1 53.665943 53.834942v0.17A53.665943 53.665943 0 0 1 539.131971 895.83H53.752488A53.323943 53.323943 0 0 1 0.090545 842.250057L0.003545-74.417967a53.323943 53.323943 0 0 1 53.663943-53.579943H970.419512a53.409943 53.409943 0 0 1 53.493943 53.750943V411.048516a53.749943 53.749943 0 0 1-53.835943 53.662943z"  horiz-adv-x="1024" />

    
    <glyph glyph-name="xinjianliucheng" unicode="&#58969;" d="M504.475571 51.716865H140.004245c-1.406435 0-2.557155 1.15072-2.557155 2.557155v136.29637c0 1.406435 1.15072 2.557155 2.557155 2.557156h362.003671c19.766809 0 35.800172 16.033363 35.800173 35.800172s-16.033363 35.800172-35.800173 35.800172H140.004245c-40.888911 0-74.1575-33.268589-74.1575-74.1575v-136.29637c0-40.888911 33.268589-74.1575 74.1575-74.1575h364.471326c19.766809 0 35.800172 16.033363 35.800172 35.800173s-16.033363 35.800172-35.800172 35.800172zM696.326137 424.550088h211.617376c1.406435 0 2.557155-1.15072 2.557155-2.557155v-53.802545c0-19.766809 16.033363-35.800172 35.800172-35.800172s35.800172 16.033363 35.800173 35.800172v53.802545c0 40.888911-33.268589 74.1575-74.1575 74.1575h-210.837444c-15.419646 63.187304-72.495349 110.226173-140.362247 110.226173s-124.942601-47.038869-140.362247-110.226173H140.004245c-1.406435 0-2.557155 1.15072-2.557155 2.557155V685.443844c0 1.406435 1.15072 2.557155 2.557155 2.557155h58.827355c6.75089-33.984592 36.784677-59.684002 72.725493-59.684002h602.261184c40.888911 0 74.1575 33.268589 74.1575 74.1575V774.752488c0 40.888911-33.268589 74.1575-74.1575 74.1575H271.557093c-40.888911 0-74.1575-33.268589-74.1575-74.1575v-15.151144H140.004245c-40.888911 0-74.1575-33.268589-74.1575-74.1575v-186.736256c0-40.888911 33.268589-74.1575 74.1575-74.1575h277.170049c16.506437-61.627439 72.814993-107.132016 139.582314-107.132016 66.74175-0.012786 123.063092 45.504576 139.569529 107.132016zM271.557093 777.309643h602.261184c1.406435 0 2.557155-1.15072 2.557155-2.557155v-72.277991c0-1.406435-1.15072-2.557155-2.557155-2.557155H271.557093c-1.406435 0-2.557155 1.15072-2.557155 2.557155v21.313888 0.012786 50.951317a2.557155 2.557155 0 0 0 2.557155 2.557155z m285.186729-388.304012c-40.185693 0-72.878922 32.693229-72.878922 72.878922s32.693229 72.878922 72.878922 72.878923 72.878922-32.693229 72.878923-72.878923-32.693229-72.878922-72.878923-72.878922zM774.511156 324.897751c-115.174269 0-208.868434-93.694165-208.868434-208.868434 0-115.174269 93.694165-208.868434 208.868434-208.868433 115.174269 0 208.868434 93.694165 208.868434 208.868433-0.012786 115.161483-93.706951 208.868434-208.868434 208.868434z m0-346.136523c-75.691793 0-137.268089 61.576296-137.268089 137.268089s61.576296 137.268089 137.268089 137.26809 137.268089-61.576296 137.26809-137.26809c-0.012786-75.691793-61.589082-137.268089-137.26809-137.268089zM841.176191 152.097991h-30.596361v30.596362c0 19.920239-16.148435 36.068674-36.068674 36.068673s-36.068674-16.148435-36.068673-36.068673v-30.596362h-30.596362c-19.920239 0-36.068674-16.148435-36.068673-36.068674s16.148435-36.068674 36.068673-36.068673h30.596362v-30.596362c0-19.920239 16.148435-36.068674 36.068673-36.068673s36.068674 16.148435 36.068674 36.068673v30.596362h30.596361c19.920239 0 36.068674 16.148435 36.068674 36.068673s-16.148435 36.068674-36.068674 36.068674z"  horiz-adv-x="1024" />

    
    <glyph glyph-name="daorumoban" unicode="&#58970;" d="M767.464-29.716H949.7c14.982 0 26.419-12.086 26.419-32.362 0-18.128-9.739-34.06-24.572-34.06H670.23c-14.982 0-30.614 14.334-30.614 28.816V206.955c0 14.483 16.33 25.67 32.762 25.67 21.075 0 34.958-11.536 34.958-26.02l-0.45-186.33 206.957 192.523c12.785 10.288 32.412 19.977 52.488 4.595 19.977-21.125 8.99-46.845-1.548-57.133zM227.801 383.347h511.846a36.507 36.507 0 1 1 0 73.014H227.801a36.507 36.507 0 1 1 0-73.014z m0 219.342h219.341a34.51 34.51 0 0 1 36.557 36.557 34.51 34.51 0 0 1-36.557 36.806H227.801a34.51 34.51 0 0 1-36.657-36.806 34.51 34.51 0 0 1 36.657-36.557zM909.048 596.146L616.542 888.452A26.818 26.818 0 0 1 594.568 895.793h-475.09c-36.607 0-73.163-36.557-73.163-73.164v-877.465c0-36.557 36.556-73.164 73.163-73.164h435.687a36.357 36.357 0 0 1 0 72.664h-399.23a34.51 34.51 0 0 0-36.607 37.206V785.923a34.51 34.51 0 0 0 36.557 36.557h402.076v-233.775c0-29.215 29.216-58.53 58.531-58.53h233.875v-226.833a18.428 18.428 0 0 1 0-2.597 36.457 36.457 0 0 1 72.514-2.348h0.75V566.731c0 7.341-7.242 21.974-14.583 29.316z m-241.316 7.242a34.51 34.51 0 0 0-36.557 36.557V771.44l168.152-168.152H667.732z"  horiz-adv-x="1024" />

    
    <glyph glyph-name="xy" unicode="&#58971;" d="M111.05395508 251.25769042000002L260.7701416 83.00207518000002c11.618042-9.0637207 21.75292969-12.93640137 33.78295899-12.93640135 13.01879884 0 24.80163575 4.53186036 33.04138184 12.77160645L479.86499023 250.43371581999997c5.19104004 8.81652832 10.21728516 18.45703125 10.21728516 31.2286377 0 22.74169921-19.85778809 42.59948731-42.51708984 42.5994873-11.45324708 0-24.06005858-5.76782227-33.61816407-15.32592773l-76.95922851-84.12780762-1e-8 430.44433594c0 25.87280273-16.72668458 42.59948731-42.51708983 42.59948731-25.37841797 0-43.17626953-17.55065918-43.17626954-42.59948731L251.29443359 224.89050292000002 174.17041015 309.26550292c-10.546875 10.546875-19.6105957 15.16113281-30.15747069 15.16113283-25.21362305 0-45.73059083-19.11621094-45.73059083-42.59948731 0-11.70043945 4.44946289-22.24731445 12.77160645-30.56945802zM639.46887208 113.24194336000005L880.81103516 113.24194336000005c24.80163575 0 44.90661622 20.18737793 44.90661621 44.98901366 0 24.8840332-20.10498047 44.98901367-44.90661621 44.98901368l-241.34216309 0c-24.80163575 0-44.90661622-20.18737793-44.90661622-44.98901367s20.10498047-44.98901367 44.90661622-44.98901367z m0 225.76904297L880.81103516 339.01098633000004c24.80163575 0 44.90661622 20.18737793 44.90661621 44.98901367 0 24.8840332-20.10498047 44.98901367-44.90661621 44.98901367l-241.34216308 0c-24.80163575 0-44.90661622-20.18737793-44.90661622-44.98901367 0-24.8840332 20.10498047-44.98901367 44.90661622-44.98901367z m-1e-8 225.68664551L880.81103516 564.69763184c24.80163575 0 44.90661622 20.18737793 44.90661621 44.98901367 0 24.8840332-20.10498047 44.98901367-44.90661621 44.98901367l-241.34216309 0c-24.80163575 0-44.90661622-20.18737793-44.90661622-44.98901368s20.10498047-44.98901367 44.90661622-44.98901367z"  horiz-adv-x="1024" />

    
    <glyph glyph-name="xinjian1" unicode="&#59478;" d="M967.104 725.312c28.864 0 52.928-21.76 56.448-49.728l0.448-7.168V-71.04c0-28.864-21.76-52.928-49.792-56.448l-7.04-0.448H227.52a57.088 57.088 0 0 0-56.448 49.792l-0.448 7.04V668.48c0 28.928 21.76 52.928 49.728 56.448l7.168 0.448H967.04zM960 661.376H234.624V-64h725.312V661.376zM608 512a32 32 0 0 0 32-32V320h160a32 32 0 1 0 0-64H640v-160a32 32 0 1 0-64 0V256H416a32 32 0 0 0 0 64H576V480a32 32 0 0 0 32 32z m131.584 384c31.232 0 56.832-25.6 56.832-56.896v-56.896h-56.832v56.96H56.896v-682.752h56.896v-56.832h-56.96A57.088 57.088 0 0 0 0 156.416V839.104C0 870.4 25.6 896 56.896 896z"  horiz-adv-x="1024" />

    
    <glyph glyph-name="shangyi" unicode="&#58972;" d="M933.888 523.776l-157.696 177.152c-12.288 9.728-23.04 13.824-35.328 13.824-13.824 0-26.112-4.608-34.816-13.312l-160.256-176.128c-5.632-9.216-10.752-19.456-10.752-32.768 0-24.064 20.992-45.056 44.544-45.056 12.288 0 25.088 6.144 35.328 15.872L696.32 551.424v-452.608c0-27.136 17.408-45.056 44.544-45.056 26.624 0 45.568 18.432 45.568 45.056V551.424l80.896-88.576c11.264-11.264 20.48-15.872 31.744-15.872 26.624 0 48.128 19.968 48.128 45.056 0 11.776-4.608 23.04-13.312 31.744zM377.856 668.672H123.904c-26.112 0-47.104-20.992-47.104-47.104s20.992-47.104 47.104-47.104h253.952c26.112 0 47.104 20.992 47.104 47.104s-20.992 47.104-47.104 47.104z m0-237.568H123.904c-26.112 0-47.104-20.992-47.104-47.104s20.992-47.104 47.104-47.104h253.952c26.112 0 47.104 20.992 47.104 47.104s-20.992 47.104-47.104 47.104z m0-237.056H123.904c-26.112 0-47.104-20.992-47.104-47.104s20.992-47.104 47.104-47.104h253.952c26.112 0 47.104 20.992 47.104 47.104s-20.992 47.104-47.104 47.104z"  horiz-adv-x="1024" />

    
    <glyph glyph-name="jiacuxuanzhong" unicode="&#59164;" d="M0 768.380142C0 838.862643 57.24888 896 127.619858 896L896.380141 896C966.862643 896 1024 838.75112 1024 768.380142L1024-0.380141C1024-70.862643 966.751117-128 896.380141-128L127.619858-128C57.137357-128 0-70.751117 0-0.380141L0 768.380142ZM257.613445 689.658863 257.613445 78.341139 553.854248 78.341139C581.252378 78.341139 607.936616 81.76585 633.90776 88.615386 659.878906 95.464915 682.995731 106.024454 703.258931 120.294317 723.522131 134.564173 739.646829 152.972019 751.63351 175.518394 763.620192 198.064774 769.613446 224.749011 769.613446 255.571904 769.613446 293.81513 760.338176 326.492618 741.78736 353.605351 723.236544 380.718084 695.125338 399.696713 657.452909 410.541806 684.85104 423.670077 705.542029 440.508259 719.52649 461.056856 733.51095 481.605454 740.503078 507.290816 740.503078 538.113713 740.503078 566.653432 735.794093 590.626436 726.375987 610.033445 716.957882 629.440454 703.68711 644.994367 686.563277 656.695652 669.43945 668.396937 648.891155 676.816028 624.917793 681.953177 600.944429 687.090326 574.402888 689.658863 545.292375 689.658863L257.613445 689.658863ZM392.03485 442.220736 392.03485 585.204013 517.894382 585.204013C529.881064 585.204013 541.439476 584.205138 552.569967 582.207358 563.700458 580.209578 573.546513 576.642166 582.108429 571.505017 590.670344 566.367868 597.519774 559.233044 602.656924 550.100335 607.794073 540.967624 610.362609 529.266515 610.362609 514.996655 610.362609 489.310908 602.657001 470.760369 587.245553 459.344482 571.834104 447.928594 552.141994 442.220736 528.168629 442.220736L392.03485 442.220736ZM392.03485 182.795987 392.03485 350.608696 538.442877 350.608696C567.55339 350.608696 590.955609 343.901962 608.650235 330.488294 626.344861 317.074627 635.192041 294.671283 635.192041 263.277592 635.192041 247.295347 632.480808 234.167277 627.058261 223.892979 621.635715 213.618675 614.358196 205.484979 605.225485 199.491642 596.092776 193.498298 585.533238 189.217402 573.546556 186.648832 561.559874 184.080256 549.002586 182.795987 535.874315 182.795987L392.03485 182.795987Z"  horiz-adv-x="1024" />

    
    <glyph glyph-name="kuanduzengjia" unicode="&#58919;" d="M960-28V796c0 19.8-16.2 36-36 36H100c-19.8 0-36-16.2-36-36v-824c0-19.8 16.2-36 36-36h824c19.8 0 36 16.2 36 36zM128.257 384L310 565.743v-117.83h137.954v-128.025H310v-117.631L128.257 384zM714 320.209H575.791V447.913H714v117.83L895.743 384 714 202.257V320.209z"  horiz-adv-x="1024" />

    
    <glyph glyph-name="border-top-solid" unicode="&#58924;" d="M810.496 85.504h85.504v-85.504h-85.504v85.504zM810.496 170.496h85.504v85.504h-85.504v-85.504zM128 341.504h85.504v84.992h-85.504v-84.992zM128 170.496h85.504v85.504h-85.504v-85.504zM128 512h85.504v85.504h-85.504v-85.504zM213.504 682.496h597.504v85.504h-597.504v-85.504zM640 0h85.504v85.504h-85.504v-85.504zM469.504 0h85.504v85.504h-85.504v-85.504zM640 0h85.504v85.504h-85.504v-85.504zM298.496 0h85.504v85.504h-85.504v-85.504zM128 0h85.504v85.504h-85.504v-85.504zM810.496 341.504h85.504v84.992h-85.504v-84.992zM810.496 512h85.504v85.504h-85.504v-85.504zM213.504 682.496v85.504h-85.504l85.504-85.504zM896 768h-85.504v-85.504l85.504 85.504z"  horiz-adv-x="1024" />

    
    <glyph glyph-name="border-right-solid" unicode="&#58929;" d="M213.504 85.504v-85.503h-85.503v85.503h85.503zM298.495 85.504v-85.503h85.503v85.503h-85.503zM469.504 768v-85.503h84.991v85.503h-84.991zM298.496 768v-85.503h85.503v85.503h-85.503zM640 768v-85.503h85.503v85.503h-85.503zM810.496 682.496v-597.504h85.503v597.504h-85.503zM128 256v-85.503h85.503v85.503h-85.503zM128 426.496v-85.503h85.503v85.503h-85.503zM128 256v-85.503h85.503v85.503h-85.503zM128 597.504v-85.503h85.503v85.503h-85.503zM128 768v-85.503h85.503v85.503h-85.503zM469.504 85.504v-85.503h84.991v85.503h-84.991zM640 85.504v-85.503h85.503v85.503h-85.503zM810.496 682.496h85.503v85.503l-85.504-85.504zM896.001-0.001v85.503h-85.503l85.504-85.504z"  horiz-adv-x="1024" />

    
    <glyph glyph-name="border-bottom-solid" unicode="&#58931;" d="M213.504 682.496h-85.503v85.503h85.503v-85.503zM213.504 597.505h-85.503v-85.503h85.503v85.503zM896 426.496h-85.503v-84.991h85.503v84.991zM896 597.504h-85.503v-85.503h85.503v85.503zM896 256h-85.503v-85.503h85.503v85.503zM810.496 85.504h-597.504v-85.503h597.504v85.503zM384 768h-85.503v-85.503h85.503v85.503zM554.496 768h-85.503v-85.503h85.503v85.503zM384 768h-85.503v-85.503h85.503v85.503zM725.504 768h-85.503v-85.503h85.503v85.503zM896 768h-85.503v-85.503h85.503v85.503zM213.504 426.496h-85.503v-84.991h85.503v84.991zM213.504 256h-85.503v-85.503h85.503v85.503zM810.496 85.504v-85.503h85.503l-85.504 85.504zM127.999-0.001h85.503v85.503l-85.504-85.504z"  horiz-adv-x="1024" />

    
    <glyph glyph-name="shadow-left" unicode="&#58957;" d="M810.496 682.496L810.496 768 896 768l0-85.504-85.504 0Zm-84.992 0L725.504 768.00000001 640 768l0-85.504 85.504 0ZM554.496 0l0 85.504L469.504 85.50400000000002 469.504 0l84.992 0Zm171.008-1e-8l0 85.50400001L640 85.50400000000002 640 0l85.504-1e-8ZM384 0l0 85.504L298.496 85.50400000000002 298.496-1.0000007932831068e-8 384 0Zm-170.496 85.504l0 597.504L128 683.00799999 128 85.50400000000002l85.504 0ZM896 512l1e-8 85.504-85.50400001 0L810.496 512 896 512Zm0-170.496l0 85.504-85.504 0L810.496 341.504 896 341.504Zm0 170.496l1e-8 85.504-85.50400001 0L810.496 512 896 512Zm1e-8-341.504L896 256l-85.504 0L810.496 170.49599999999998 896.00000001 170.49599999999998ZM896 0l0 85.504-85.504 0L810.496 0 896 0Zm-341.504 682.496L554.496 768 469.504 768l0-85.504 84.992 0Zm-170.496 0L384 768 298.496 768.00000001l0-85.50400001L384 682.496ZM213.504 85.50400000000002L128 85.50400000000002 128 0l85.504 85.504ZM128 768l0-85.504 85.504 0L128 768Z"  horiz-adv-x="1024" />

    
    <glyph glyph-name="beijingyansezhuanhuan" unicode="&#58958;" d="M109.714286 18.285714h804.571428v-146.285714H109.714286v146.285714zM811.885714 113.371429c-36.571429 0-65.828571 36.571429-65.828571 80.457142 0 43.885714 43.885714 95.085714 65.828571 124.342858 21.942857-21.942857 65.828571-73.142857 65.828572-124.342858 0-43.885714-29.257143-80.457143-65.828572-80.457142zM446.171429 84.114286c-21.942857 0-36.571429 7.314286-51.2 21.942857L131.657143 362.057143c-29.257143 29.257143-29.257143 80.457143 0 109.714286L336.457143 676.571429 226.742857 786.285714 336.457143 896l270.628571-270.628571 153.6-153.6c29.257143-29.257143 29.257143-80.457143 0-109.714286l-256-256c-21.942857-14.628571-36.571429-21.942857-58.514285-21.942857zM329.142857 786.285714L438.857143 676.571429 182.857143 420.571429l256-263.314286h7.314286l256 256-124.342858 131.657143L329.142857 786.285714zM124.342857 420.571429H768l-292.571429-292.571429c-14.628571-14.628571-43.885714-14.628571-58.514285 0l-292.571429 292.571429z"  horiz-adv-x="1024" />

    
    <glyph glyph-name="kuandu" unicode="&#58962;" d="M703.2 160.8v159.4H320.6v-159.4L97.4 383.8l223.2 223.2v-159.4h382.6v159.4l223.2-223.2-223.2-223zM1022 766.6c0 35.2-28.8 63.8-63.8 63.8H65.8C30.6 830.2 2 801.6 2 766.6v-765c0-35.2 28.8-63.8 63.8-63.8h892.6c35.2 0 63.8 28.8 63.8 63.8V766.6z m0 0"  horiz-adv-x="1024" />

    
    <glyph glyph-name="gaodu" unicode="&#59075;" d="M146.285714 896h731.428572a146.285714 146.285714 0 0 0 146.285714-146.285714v-731.428572a146.285714 146.285714 0 0 0-146.285714-146.285714H146.285714a146.285714 146.285714 0 0 0-146.285714 146.285714V749.714286a146.285714 146.285714 0 0 0 146.285714 146.285714z m364.836572-949.248l207.36 207.36H584.265143V311.515429H438.198857v-157.403429H303.762286l207.36-207.36z m72.777143 668.306286h134.582857L511.122286 822.418286 303.762286 615.058286h134.436571v-157.696h145.700572V615.058286z"  horiz-adv-x="1024" />

    
    <glyph glyph-name="xieti" unicode="&#58963;" d="M437.248 793.6l-16.384-40.96h16.384c40.96 0 49.152 0 57.344-8.192 8.192 0 16.384-8.192 16.384-16.384s8.192-8.192 8.192-16.384c0-16.384-8.192-49.152-16.384-90.112L363.52 146.432c-16.384-49.152-24.576-81.92-40.96-98.304-8.192-8.192-16.384-16.384-32.768-24.576-8.192 0-24.576-8.192-65.536-8.192h-8.192l-16.384-40.96h360.448l16.384 40.96h-16.384c-32.768 0-57.344 8.192-65.536 8.192-8.192 0-16.384 8.192-16.384 16.384s-8.192 8.192-8.192 16.384 0 24.576 16.384 81.92l139.264 483.328c16.384 49.152 24.576 81.92 32.768 90.112 8.192 16.384 24.576 24.576 40.96 32.768 8.192 8.192 24.576 8.192 49.152 8.192h8.192l16.384 40.96H437.248z"  horiz-adv-x="1024" />

    
    <glyph glyph-name="zitiyanse" unicode="&#58965;" d="M1024 64v-192H0v192h1024zM576 896l320-768h-128l-80 192h-352L256 128H128L448 896h128zM512 742.4L389.312 448h245.376L512 742.4z"  horiz-adv-x="1024" />

    
    <glyph glyph-name="biankuang" unicode="&#59177;" d="M861.02-64.76h-695c-55.14 0-100 44.86-100 100v695c0 55.14 44.86 100 100 100h695c55.14 0 100-44.86 100-100v-695c0-55.14-44.86-100-100-100z m-695 815c-10.84 0-20-9.16-20-20v-695c0-10.84 9.16-20 20-20h695c10.84 0 20 9.16 20 20v695c0 10.84-9.16 20-20 20h-695z"  horiz-adv-x="1024" />

    
    <glyph glyph-name="kuangjia" unicode="&#58918;" d="M908.44-115H118.76A102.25 102.25 0 0 0 16.63-12.84V776.84A102.25 102.25 0 0 0 118.76 879h789.68a102.25 102.25 0 0 0 102.13-102.13v-789.71A102.25 102.25 0 0 0 908.44-115zM118.76 836.45a59.68 59.68 0 0 1-59.61-59.61v-789.68a59.68 59.68 0 0 1 59.61-59.61h789.68a59.68 59.68 0 0 1 59.61 59.61V776.84a59.68 59.68 0 0 1-59.61 59.61zM970.44 560.39H37.89a21.26 21.26 0 0 0 0 42.52h932.55a21.26 21.26 0 0 0 0-42.52zM518.69-93.34a21.26 21.26 0 0 0-21.26 21.26V576.19a21.26 21.26 0 1 0 42.52 0v-648.27a21.26 21.26 0 0 0-21.26-21.26z"  horiz-adv-x="1024" />

    
    <glyph glyph-name="kuangjia1" unicode="&#59036;" d="M967.111111 896H56.888889a56.888889 56.888889 0 0 1-56.888889-56.888889v-910.222222a56.888889 56.888889 0 0 1 56.888889-56.888889h910.222222a56.888889 56.888889 0 0 1 56.888889 56.888889V839.111111a56.888889 56.888889 0 0 1-56.888889 56.888889z m0-56.888889v-188.586667H56.888889V839.111111zM56.888889-71.111111V593.635556h227.555555V-71.111111h56.888889V593.635556h625.777778V-71.111111z"  horiz-adv-x="1024" />

    
    <glyph glyph-name="shenhe" unicode="&#58915;" d="M99.490909 79.644444V729.341414C99.490909 756.363636 121.470707 778.343434 148.492929 778.343434H756.29899c27.022222 0 49.00202-21.979798 49.00202-49.00202v-211.00606c5.430303-5.947475 12.670707-10.214141 20.428283-12.153536l6.206061-1.551515 4.00808 0.905051c8.533333 1.810101 16.420202 6.335354 22.238384 12.8V729.341414c0 56.242424-45.640404 101.882828-102.012121 102.012121h-607.676768C92.121212 831.353535 46.480808 785.713131 46.480808 729.341414v-649.69697c0.129293-56.242424 45.640404-101.882828 102.012121-102.012121h294.012122l2.197979 3.749495c8.921212 15.515152 8.145455 34.650505-2.197979 49.260606H148.492929c-27.151515 0-49.00202 21.979798-49.00202 49.00202z m0 0M926.060606 128h-53.139394L793.793939 229.107071c34.133333 18.618182 57.664646 54.30303 57.664647 95.80606 0 60.509091-49.131313 109.511111-109.640404 109.511111-60.509091-0.129293-109.511111-49.131313-109.511111-109.511111 0-41.50303 23.531313-77.187879 57.535353-95.80606l-78.868687-101.107071h-53.139394c-28.444444 0-51.587879-23.143434-51.587878-51.717172v-88.048485c0-28.444444 23.143434-51.717172 51.587878-51.717171h368.09697c28.444444 0 51.587879 23.143434 51.587879 51.717171V76.282828c0 13.705051-5.430303 26.763636-14.99798 36.460606-9.567677 9.69697-22.755556 15.256566-36.460606 15.256566zM685.446465 324.783838c0.775758 30.771717 25.858586 55.208081 56.630303 55.208081 30.771717 0 55.854545-24.565657 56.630303-55.208081 0-31.159596-25.341414-56.50101-56.630303-56.50101-31.288889 0-56.50101 25.341414-56.630303 56.50101zM742.076768 209.454545l63.741414-81.454545h-127.482828l63.741414 81.454545z m182.690909-219.927272l-365.381818-1.29293-1.422223 86.755556 366.804041 1.292929v-86.755555z m-744.856566 594.747474H705.874747v-53.010101H179.911111v53.010101z m0-295.692929h308.880808v-53.010101H179.911111v53.010101z m0 157.220202h372.622222v-53.010101H179.911111v53.010101z m0 0"  horiz-adv-x="1024" />

    
    <glyph glyph-name="fenzu" unicode="&#58989;" d="M232.727273 709.818182a46.545455 46.545455 0 0 1-46.545455-46.545455v-139.636363a46.545455 46.545455 0 0 1 46.545455-46.545455h139.636363a46.545455 46.545455 0 0 1 46.545455 46.545455V663.272727a46.545455 46.545455 0 0 1-46.545455 46.545455H232.727273z m0 46.545454h139.636363a93.090909 93.090909 0 0 0 93.090909-93.090909v-139.636363a93.090909 93.090909 0 0 0-93.090909-93.090909H232.727273a93.090909 93.090909 0 0 0-93.090909 93.090909V663.272727a93.090909 93.090909 0 0 0 93.090909 93.090909zM232.727273 337.454545a46.545455 46.545455 0 0 1-46.545455-46.545454v-139.636364a46.545455 46.545455 0 0 1 46.545455-46.545454h139.636363a46.545455 46.545455 0 0 1 46.545455 46.545454v139.636364a46.545455 46.545455 0 0 1-46.545455 46.545454H232.727273z m0 46.545455h139.636363a93.090909 93.090909 0 0 0 93.090909-93.090909v-139.636364a93.090909 93.090909 0 0 0-93.090909-93.090909H232.727273a93.090909 93.090909 0 0 0-93.090909 93.090909v139.636364a93.090909 93.090909 0 0 0 93.090909 93.090909zM581.818182 709.818182h279.272727a23.272727 23.272727 0 1 0 0-46.545455h-279.272727a23.272727 23.272727 0 0 0 0 46.545455z m0-372.363637h279.272727a23.272727 23.272727 0 1 0 0-46.545454h-279.272727a23.272727 23.272727 0 0 0 0 46.545454z m0 186.181819h279.272727a23.272727 23.272727 0 1 0 0-46.545455h-279.272727a23.272727 23.272727 0 0 0 0 46.545455z m0-372.363637h279.272727a23.272727 23.272727 0 1 0 0-46.545454h-279.272727a23.272727 23.272727 0 1 0 0 46.545454z"  horiz-adv-x="1024" />

    
    <glyph glyph-name="fujian" unicode="&#58916;" d="M672.1 831.8c25.7 0 51.4-6.4 70.7-12.9C820 786.8 865 716 865 632.4c0-51.4-19.3-102.9-57.9-141.5L447 124.4c-12.9-12.9-25.7-19.3-38.6-25.7-12.9-6.4-25.7-6.4-45-6.4-12.9 0-32.2 0-45 6.4-12.9 6.4-25.7 12.9-32.2 25.7-12.9 12.9-19.3 25.7-25.7 38.6-6.4 12.9-6.4 32.1-6.4 45 0 32.2 12.9 64.3 32.2 83.6l328 340.8c6.4 6.4 19.3 12.9 25.7 12.9 12.9 0 25.7-6.4 32.2-12.9 6.4-6.4 12.9-19.3 12.9-25.7-6.4-12.9-6.4-19.3-12.9-32.2L337.7 240.2c-6.4-6.4-12.9-19.3-12.9-32.2 0-19.3 19.3-38.6 38.6-38.6 12.9 0 19.3 6.4 25.7 12.9l360.1 366.5c25.7 25.7 32.1 51.4 32.1 83.6 0 32.2-12.9 57.9-32.1 83.6-19.3 25.7-45 38.6-77.2 38.6s-64.3-12.9-83.6-38.6l-360-366.5c-19.3-19.3-32.2-38.6-45-64.3-19.3-45-19.3-102.9 0-147.9 12.9-25.7 25.7-45 45-64.3 38.6-38.6 83.6-57.9 135-57.9 51.4 0 102.9 19.3 135 57.9L865 433.1c6.4 12.9 12.9 12.9 25.7 12.9 12.9 0 19.3-6.4 25.7-12.9 6.4-6.4 12.9-12.9 12.9-25.7s-6.4-19.3-12.9-25.7L556.3 15.1c-25.7-25.7-57.9-45-90-64.3-32.2-12.9-64.3-19.3-102.9-19.3-38.6 0-70.7 6.4-102.9 19.3s-64.3 32.2-90 64.3c-25.7 25.7-45 57.9-57.9 90-12.8 32.2-19.2 70.8-19.2 102.9 0 38.6 6.4 70.7 19.3 109.3 12.9 32.2 32.2 64.3 57.9 90l360.1 366.5c38.5 38.7 89.9 58 141.4 58z m0 0"  horiz-adv-x="1024" />

    
    <glyph glyph-name="ziduan" unicode="&#58917;" d="M869.035 895.132H94.653c-51.457 0-93.32-41.822-93.32-93.229v-773.232c0-51.406 41.863-93.229 93.32-93.229h545.865v64H94.653c-16.167 0-29.32 13.112-29.32 29.229V801.903c0 16.117 13.153 29.229 29.32 29.229h774.382c16.167 0 29.319-13.112 29.319-29.229v-545.786h64V801.903c0 51.407-41.863 93.229-93.319 93.229zM928.355 126.333h-96.014V224.89c0 17.6-14.4 32-32 32s-32-14.4-32-32v-98.556h-96.216c-17.6 0-32-14.4-32-32s14.4-32 32-32h96.216v-94.557c0-17.6 14.4-32 32-32s32 14.4 32 32v94.557h96.014c17.6 0 32 14.4 32 32s-14.4 31.999-32 31.999zM479.778 256.035c17.6 0 32 14.4 32 32V640h159.556c17.6 0 32 14.4 32 32s-14.4 32-32 32H289.021c-17.6 0-32-14.4-32-32s14.4-32 32-32h158.756v-351.965c0.001-17.6 14.401-32 32.001-32z"  horiz-adv-x="1024" />

    
    <glyph glyph-name="zujian" unicode="&#59117;" d="M416 768v-288H128V768h288m0 64H128c-35.3 0-64-28.7-64-64v-288c0-35.3 28.7-64 64-64h288c35.3 0 64 28.7 64 64V768c0 35.3-28.7 64-64 64zM416 288v-288H128V288h288m0 64H128c-35.3 0-64-28.7-64-64v-288c0-35.3 28.7-64 64-64h288c35.3 0 64 28.7 64 64V288c0 35.3-28.7 64-64 64zM896 288v-288H608V288h288m0 64H608c-35.3 0-64-28.7-64-64v-288c0-35.3 28.7-64 64-64h288c35.3 0 64 28.7 64 64V288c0 35.3-28.7 64-64 64zM928 656H784V800c0 17.7-14.3 32-32 32s-32-14.3-32-32v-144H576c-17.7 0-32-14.3-32-32s14.3-32 32-32h144v-144c0-17.7 14.3-32 32-32s32 14.3 32 32V592h144c17.7 0 32 14.3 32 32s-14.3 32-32 32z"  horiz-adv-x="1024" />

    
    <glyph glyph-name="tianjiashujubiao" unicode="&#58928;" d="M896 32H640a32 32 0 0 0 0 64h256a32 32 0 0 0 0-64zM768-96a32 32 0 0 0-32 32V192a32 32 0 0 0 64 0v-256a32 32 0 0 0-32-32z m128 672H128a32 32 0 0 0-32 32V800a32 32 0 0 0 32 32h768a32 32 0 0 0 32-32v-192a32 32 0 0 0-32-32z m-736 64h704V768H160z m736-384H128a32 32 0 0 0-32 32V480a32 32 0 0 0 32 32h768a32 32 0 0 0 32-32v-192a32 32 0 0 0-32-32z m-736 64h704V448H160z m384-384H128a32 32 0 0 0-32 32V160a32 32 0 0 0 32 32h416a32 32 0 0 0 32-32v-192a32 32 0 0 0-32-32z m-384 64h352V128H160z"  horiz-adv-x="1024" />

    
    <glyph glyph-name="xitong" unicode="&#59004;" d="M508.472352 512.14786c67.34534 0 122.149982-54.804642 122.149982-122.149982s-54.804642-122.149982-122.149982-122.149982-122.149982 54.804642-122.149982 122.149982S441.127012 512.14786 508.472352 512.14786M508.472352 566.436652c-97.44853 0-176.438974-78.990444-176.438974-176.438974s78.990245-176.438974 176.438974-176.438974 176.438974 78.990444 176.438974 176.438974S605.920882 566.436652 508.472352 566.436652M944.657818 282.277112c7.75814 33.08237 11.71086 67.147074 11.71086 101.721833 0 34.574758-3.95272 68.639462-11.71086 101.721833-3.424478 14.6025-18.03817 23.663956-32.64047 20.239478-14.6025-3.424478-23.663956-18.03817-20.239478-32.64047 6.806385-29.023522 10.276233-58.927247 10.276233-89.32084s-3.469847-60.297318-10.276233-89.32084c-3.424478-14.6025 5.636978-29.215992 20.239478-32.64047C926.619648 258.613156 941.23334 267.674613 944.657818 282.277112L944.657818 282.277112zM912.571772 261.428847c1.717835 0 3.155461-0.025982 4.466372-0.082944 14.984441-0.651558 27.660046 10.967564 28.311405 25.952005 0.651558 14.984441-10.967564 27.659847-25.952005 28.311205-2.173127 0.094536-4.374234 0.134309-6.825572 0.134309-14.998631 0-27.157187-12.158756-27.157187-27.157387C885.414585 273.587604 897.573141 261.428847 912.571772 261.428847L912.571772 261.428847zM823.90289 98.055414c-11.086883 17.029254-17.073024 36.869003-17.073024 57.631526 0 58.400005 47.341902 105.741907 105.741907 105.741907 14.998431 0 27.157187 12.158756 27.157187 27.157387 0 14.998431-12.158756 27.157387-27.157187 27.157387-88.397267 0-160.056482-71.659415-160.056482-160.056482 0-31.370131 9.087639-61.488711 25.869461-87.265634 8.183252-12.569478 25.006645-16.125267 37.576123-7.941815C828.530352 68.662743 832.086142 85.486136 823.90289 98.055414L823.90289 98.055414zM640.117097-41.604096c67.575784 20.29564 129.145839 56.493897 179.853459 105.270227 10.809471 10.39775 11.143045 27.589694 0.745295 38.398966s-27.589694 11.143045-38.398966 0.745295c-44.525412-42.829562-98.556179-74.595224-157.823396-92.395556-14.364661-4.314275-22.512137-19.456608-18.197862-33.821269C610.609902-37.770895 625.752236-45.918371 640.117097-41.604096L640.117097-41.604096zM416.297246-27.156492c17.308065 36.78526 54.331963 60.762003 95.703913 60.762003 41.379345 0 78.426227-23.983939 95.731094-60.762003 6.385471-13.571399 22.563902-19.396649 36.1351-13.011178 13.571399 6.385671 19.396649 22.563902 13.011178 36.1351-26.182448 55.646072-82.263425 91.952656-144.877373 91.952656-62.609751 0-118.665745-36.302187-144.850192-91.952656-6.385471-13.571199-0.56042-29.74963 13.010979-36.1351C393.733345-46.553141 409.911576-40.72789 416.297246-27.156492L416.297246-27.156492zM205.250336 62.505118c50.488769-48.177935 111.614725-83.95228 178.654872-104.107015 14.363462-4.318272 29.507994 3.825007 33.826266 18.188468 4.318272 14.363462-3.825007 29.507994-18.188468 33.826266-58.809527 17.680413-112.457954 49.078525-156.796092 91.387239-10.851043 10.35438-28.041388 9.951653-38.395768-0.89939S194.399293 72.859497 205.250336 62.505118L205.250336 62.505118zM113.276295 261.428847c58.400005 0 105.741907-47.341902 105.741907-105.741907 0-21.122679-6.193001-41.291404-17.633844-58.497139-8.304769-12.489532-4.912469-29.346503 7.576863-37.651472 12.489532-8.304769 29.346503-4.912669 37.651472 7.576863 17.319657 26.04674 26.720084 56.661384 26.720084 88.571548 0 88.397067-71.659415 160.056482-160.056482 160.056482-14.998631 0-27.157387-12.158756-27.157387-27.157387C86.119107 273.587604 98.277864 261.428847 113.276295 261.428847L113.276295 261.428847zM107.301546 261.279748c1.830759 0.100532 3.809417 0.149099 5.974749 0.149099 14.998631 0 27.157387 12.158756 27.157387 27.157387 0 14.998431-12.158756 27.157387-27.157387 27.157387-3.11269 0-6.073482-0.072551-8.954729-0.231043-14.976046-0.822842-26.449267-13.630359-25.626425-28.606405C79.518183 271.930327 92.325499 260.456906 107.301546 261.279748L107.301546 261.279748zM79.370483 485.796926c-7.770332-33.163315-11.736842-67.251004-11.736842-101.797981 0-34.546977 3.966311-68.634866 11.736842-101.797981 3.42168-14.603099 18.033373-23.667354 32.636472-20.245873 14.603099 3.42168 23.667354 18.033573 20.245873 32.636472-6.821775 29.11526-10.304613 59.045967-10.304613 89.407382 0 30.361415 3.482639 60.292322 10.304613 89.407382 3.42168 14.603099-5.642774 29.214992-20.245873 32.636472C97.403856 509.464479 82.791963 500.400025 79.370483 485.796926L79.370483 485.796926zM113.276295 506.569042c-2.165532 0-4.14419 0.048567-5.974749 0.149099-14.976046 0.822842-27.783363-10.650579-28.606405-25.626425-0.822842-14.976046 10.650579-27.783363 25.626425-28.606405 2.881047-0.158293 5.842039-0.230843 8.954729-0.230843 14.998631 0 27.157387 12.158756 27.157387 27.157387C140.433682 494.410286 128.274926 506.569042 113.276295 506.569042L113.276295 506.569042zM201.384357 670.807888c11.442442-17.207933 17.633844-37.377258 17.633844-58.524121 0-58.393209-47.335107-105.714725-105.741907-105.714725-14.998631 0-27.157387-12.158756-27.157387-27.157387 0-14.998631 12.158756-27.157387 27.157387-27.157387 88.400664 0 160.056482 71.635631 160.056482 160.0293 0 31.932949-9.398228 62.548592-26.720084 88.59873-8.304769 12.489532-25.16194 15.881832-37.651472 7.576863S193.079588 683.29742 201.384357 670.807888L201.384357 670.807888zM383.905208 809.599787c-67.040147-20.154935-128.166103-55.92908-178.654872-104.107015-10.851043-10.35438-11.25357-27.544725-0.89919-38.395768 10.35438-10.851043 27.544725-11.25357 38.395768-0.89919 44.338139 42.308915 97.986565 73.706827 156.796092 91.387239 14.363462 4.318272 22.50674 19.462804 18.188468 33.826266C413.413202 805.774581 398.26867 813.91786 383.905208 809.599787L383.905208 809.599787zM607.732254 795.154381c-17.303468-36.775266-54.348552-60.762203-95.703913-60.762203-41.396133 0-78.42183 23.974146-95.731094 60.762203-6.385471 13.571399-22.563902 19.396649-36.1351 13.010979-13.571399-6.385471-19.396649-22.563902-13.010979-36.1351 26.186446-55.654466 82.245038-91.952656 144.877373-91.952656 62.591363 0 118.669742 36.310581 144.850192 91.952656 6.385471 13.571399 0.56022 29.74963-13.011178 36.1351C630.296155 814.55103 614.117724 808.72578 607.732254 795.154381L607.732254 795.154381zM819.96476 704.337155c-50.705222 48.744751-112.269881 84.939811-179.83767 105.261633-14.363062 4.319871-29.508393-3.821809-33.828264-18.184671s3.821809-29.508393 18.184871-33.828264c59.273013-17.826913 113.309576-49.596174 157.839185-92.40415 10.812469-10.394552 28.004213-10.055582 38.398766 0.756887S830.777229 693.942603 819.96476 704.337155L819.96476 704.337155zM912.571772 506.569042c-58.407 0-105.741907 47.321516-105.741907 105.714725 0 20.786707 5.984742 40.627055 17.073024 57.658508 8.183252 12.569478 4.627463 29.392872-7.942015 37.576123-12.569478 8.183252-29.392872 4.627463-37.576123-7.942015-16.78422-25.780321-25.869461-55.8999-25.869461-87.292815 0-88.393669 71.655817-160.0293 160.056482-160.0293 14.998431 0 27.157187 12.158756 27.157187 27.157387C939.72896 494.410286 927.570203 506.569042 912.571772 506.569042L912.571772 506.569042zM917.038144 506.651786c-1.310911-0.056961-2.748337-0.082944-4.466372-0.082944-14.998631 0-27.157187-12.158756-27.157187-27.157387 0-14.998631 12.158556-27.157387 27.157187-27.157387 2.451538 0 4.652646 0.039773 6.825572 0.134109 14.984441 0.651558 26.603563 13.326964 25.952005 28.311405C944.697991 495.684222 932.022585 507.303344 917.038144 506.651786L917.038144 506.651786z"  horiz-adv-x="1024" />

    
    <glyph glyph-name="jiedian-" unicode="&#58975;" d="M887.552 349.89056c-28.16 0-54.21056-8.576-75.97056-23.168l-140.22144 153.6a237.55264 237.55264 0 0 1 79.54944 176.768C750.7712 788.97664 643.8912 895.85664 512 896 380.1088 895.85664 273.2288 788.97664 273.09056 657.08544c0-67.84 28.672-128.768 74.24-172.35456L203.52 331.58144a134.60992 134.60992 0 0 1-67.01056 18.304C61.12256 349.81888 0.03584 288.70144 0 213.31456 0 138.04544 61.25056 76.8 136.50944 76.8c75.38688 0.03584 136.50432 61.12256 136.576 136.51456 0 26.112-7.68 50.176-20.48 70.97344l151.10656 161.024a234.73152 234.73152 0 0 1 74.17856-23.68v-281.41056a136.448 136.448 0 0 1-102.4-131.712c0-75.264 61.184-136.50944 136.50944-136.50944 75.3664 0.07168 136.44288 61.14816 136.50944 136.50944 0 63.42144-43.648 116.41856-102.4 131.712V421.632c24.00256 3.456 46.78144 10.17344 67.84 20.29056l152.38656-166.85056c-9.53856-18.688-15.36-39.424-15.36-61.75744 0-75.264 61.184-136.51456 136.576-136.51456 75.41248 2.82624 134.25152 66.2528 131.42528 141.66528-2.68288 71.44448-59.9808 128.7424-131.42528 131.42528z m-751.03744-204.8c-37.69856-1.13664-69.17632 28.50304-70.31808 66.19648S94.69952 280.46336 132.39296 281.6c1.39264 0.04096 2.7904 0.04096 4.18304 0 37.71392-0.01536 68.2752-30.60224 68.25984-68.31616-0.01536-37.69344-30.5664-68.24448-68.25984-68.25984l-0.06144 0.06656z m204.8 512c0.1024 94.21312 76.47232 170.55232 170.68544 170.61888 94.21312-0.07168 170.58304-76.41088 170.68544-170.624C682.61888 562.84672 606.23872 486.47168 512 486.4c-94.23872 0.07168-170.61888 76.44672-170.68544 170.69056z m238.976-648.576c-0.01536-37.71392-30.60736-68.2752-68.32128-68.25472-37.71392 0.01536-68.2752 30.60736-68.25472 68.32128 0.01536 37.71392 30.60224 68.2752 68.31616 68.25984 37.69344-0.01536 68.24448-30.5664 68.25984-68.25984v-0.06656z m307.2 136.576c-37.67296 0.03584-68.21888 30.55104-68.29056 68.224 0 37.71392 30.57152 68.28544 68.29056 68.28544 37.71392 0 68.29056-30.57152 68.28544-68.29056 0-37.68832-30.53568-68.25472-68.224-68.28544l-0.06144 0.06656z"  horiz-adv-x="1024" />

    
    <glyph glyph-name="jiajianchengchu-" unicode="&#58908;" d="M192 416h640v-64H192z"  horiz-adv-x="1024" />

    
    <glyph glyph-name="jiajianchengchu-1" unicode="&#58909;" d="M192 416h640v-64H192zM544 704v-640h-64V704z"  horiz-adv-x="1024" />

    
    <glyph glyph-name="daorudaochu" unicode="&#58956;" d="M568 440h56V664H400v-56h127.6L224.8 305.2l39.6-39.6L568 569.2V440zM397.4 162.2V302.6H344v-234.5h213.5v58.6H441.1l307.6 307.6-39.6 39.7-311.7-311.8zM848 832H344c-61.9 0-112-50.1-112-112v-56h-56c-61.9 0-112-50.1-112-112v-504c0-61.9 50.1-112 112-112h504c61.9 0 112 50.1 112 112v56h56c61.9 0 112 50.1 112 112V720c0 61.9-50.1 112-112 112z m56-618c0-29.8-24.2-54-54-54h-58V272h-56v-225.3c0-30.2-24.5-54.7-54.7-54.7H199.7c-44 0-79.7 35.7-79.7 79.7V549.8c0 32.1 26 58.2 58.2 58.2H344v56h-56v54.6c0 31.7 25.7 57.4 57.4 57.4h495.4c34.9 0 63.2-28.3 63.2-63.2V214z"  horiz-adv-x="1024" />

    
    <glyph glyph-name="xinjianbiaodan" unicode="&#58904;" d="M743.4 296.4H330.8c-12.2 0-22 9.8-22 22s9.8 22 22 22h412.6c12.2 0 22-9.8 22-22s-9.9-22-22-22zM537.1 90.1c-12.2 0-22 9.8-22 22V524.6c0 12.2 9.8 22 22 22s22-9.8 22-22V112c0-12.1-9.9-21.9-22-21.9zM801.2-70.7H273c-73 0-132.4 59.4-132.4 132.4V707.3c0 73 59.4 132.4 132.4 132.4h376.2c15.4 2.4 30.1-2.2 40.6-12.7l229-229c5.6-5.5 9.4-12.5 11.7-21.3 2-5.2 3.1-10.7 3.1-16.1v-498.9c0-73-59.4-132.4-132.4-132.4zM273 809.7c-56.5 0-102.4-45.9-102.4-102.4v-645.6c0-56.5 45.9-102.4 102.4-102.4h528.2c56.5 0 102.4 45.9 102.4 102.4V560.6c0 1.9-0.4 3.8-1.2 5.7l-0.5 1.1-0.3 1.2c-0.9 3.8-2.2 6.4-4 8.2l-229 229c-5.2 5.2-11.9 4.9-15.4 4.2l-1.4-0.3H273zM909.7 570l-242.2 10.9-4.8 230.4 30 0.6 4.2-202.3L911 600z"  horiz-adv-x="1024" />

    
    <glyph glyph-name="fengge" unicode="&#59915;" d="M783.786667 620.074667c28.629333-71.466667 9.898667-135.125333-52.949334-188.032 17.92-2.816 34.645333-6.272 50.090667-10.325334l-10.88-41.258666c-14.08 3.712-29.525333 6.869333-46.250667 9.514666-10.837333 1.706667-28.672 3.712-53.376 6.058667l-65.706666 6.272 56.96 33.365333c83.2 48.725333 108.714667 103.125333 82.517333 168.533334-34.56 86.485333-285.056 111.957333-429.312 60.416-153.770667-54.954667-261.76-179.456-242.346667-331.52 22.186667-173.909333 190.72-282.154667 438.485334-282.154667 212.266667 0 354.901333 89.002667 369.792 204.672 0.810667 6.229333 1.194667 12.501333 1.194666 18.773333h42.666667c0-8.106667-0.512-16.170667-1.536-24.192-18.090667-140.458667-180.650667-241.92-412.117333-241.92-267.093333 0-455.509333 121.002667-480.853334 319.445334C7.850667 503.082667 129.962667 643.84 300.586667 704.853333c163.157333 58.325333 437.205333 30.421333 483.285333-84.736z m185.984-179.712a21.333333 21.333333 0 0 0 23.125333-35.84l-239.530667-154.752c10.026667-22.656 7.168-48.768-11.605333-71.381334-50.517333-60.842667-191.36-54.912-284.288 7.253334l-42.453333 28.373333 50.048 10.24c41.856 8.533333 69.888 16.512 90.538666 25.173333 12.117333 5.034667 21.077333 9.898667 33.962667 18.005334 31.189333 19.669333 26.965333 17.066667 40.576 24.192 30.634667 15.957333 68.224 11.136 95.744-8.789334z m-319.914667-186.581334c-12.074667-6.272-7.765333-3.669333-37.546667-22.442666a251.562667 251.562667 0 0 0-40.277333-21.333334 359.552 359.552 0 0 0-41.301333-14.037333c70.442667-26.453333 150.997333-23.082667 178.176 9.642667 11.52 13.824 9.301333 27.861333-4.608 39.936-15.189333 13.141333-37.717333 16.938667-54.442667 8.234666zM234.666667 405.333333a85.333333 85.333333 0 1 0 0-170.666666 85.333333 85.333333 0 0 0 0 170.666666z m0-42.666666a42.666667 42.666667 0 1 1 0-85.333334 42.666667 42.666667 0 0 1 0 85.333334z m298.666666 213.333333a85.333333 85.333333 0 1 0 0-170.666667 85.333333 85.333333 0 0 0 0 170.666667z m0-42.666667a42.666667 42.666667 0 1 1 0-85.333333 42.666667 42.666667 0 0 1 0 85.333333zM341.333333 576a64 64 0 1 0 0-128 64 64 0 0 0 0 128z m0-42.666667a21.333333 21.333333 0 1 1 0-42.666666 21.333333 21.333333 0 0 1 0 42.666666z"  horiz-adv-x="1024" />

    
    <glyph glyph-name="fengge1" unicode="&#58906;" d="M402.245818 367.313455h-127.930182a220.625455 220.625455 0 0 1-156.928-64.837819c-40.052364-40.052364-64.837818-95.418182-64.837818-156.555636s24.785455-116.503273 64.837818-156.555636a220.625455 220.625455 0 0 1 156.555637-64.837819 220.625455 220.625455 0 0 1 156.555636 64.837819 220.741818 220.741818 0 0 1 64.837818 156.555636v128.302545c0 51.339636-41.751273 93.090909-93.090909 93.09091z m46.545455-221.370182h-0.023273a174.824727 174.824727 0 1 0-174.824727 174.824727h0.395636v0.046545h127.930182c25.693091 0 46.545455-20.875636 46.545454-46.568727v-128.302545zM750.056727 367.313455H621.754182c-51.362909 0-93.090909-41.751273-93.090909-93.09091v-128.302545a220.625455 220.625455 0 0 1 64.837818-156.555636c40.052364-40.075636 95.418182-64.837818 156.555636-64.837819s116.48 24.762182 156.555637 64.837819c40.075636 40.052364 64.837818 95.418182 64.837818 156.555636s-24.762182 116.503273-64.837818 156.555636a220.672 220.672 0 0 1-156.555637 64.837819z m0-396.19491a174.824727 174.824727 0 0 0-174.824727 174.824728h-0.023273v128.302545c0 25.693091 20.852364 46.568727 46.545455 46.568727h127.906909v-0.046545h0.395636a174.824727 174.824727 0 0 0 0-349.649455zM273.943273 843.450182c-61.114182 0-116.48-24.785455-156.555637-64.837818s-64.837818-95.418182-64.837818-156.555637a220.741818 220.741818 0 0 1 64.837818-156.555636 220.695273 220.695273 0 0 1 156.928-64.837818h127.930182c51.362909 0 93.090909 41.728 93.090909 93.090909v128.302545c0 61.114182-24.785455 116.48-64.837818 156.555637s-95.441455 64.837818-156.555636 64.837818z m174.848-221.393455v-128.302545c0-25.669818-20.875636-46.545455-46.545455-46.545455h-127.930182v0.046546h-0.395636a174.824727 174.824727 0 1 0 174.824727 174.824727h0.046546zM621.777455 400.686545H750.08c61.137455 0 116.48 24.762182 156.555636 64.837819s64.837818 95.418182 64.837819 156.555636c0 61.114182-24.762182 116.48-64.837819 156.555636s-95.418182 64.837818-156.555636 64.837819-116.503273-24.785455-156.555636-64.837819a220.625455 220.625455 0 0 1-64.837819-156.555636v-128.302545c0-51.362909 41.728-93.090909 93.09091-93.09091z m-46.545455 221.370182c0.023273 96.535273 78.289455 174.824727 174.848 174.824728a174.824727 174.824727 0 1 0 0-349.649455h-0.395636v-0.046545h-127.906909c-25.693091 0-46.545455 20.875636-46.545455 46.545454v128.325818z"  horiz-adv-x="1024" />

    
    <glyph glyph-name="yangshi" unicode="&#58996;" d="M390.7584 778.496a81.92 81.92 0 0 0 81.92-81.92v-237.1072a81.92 81.92 0 0 0-81.92-81.92H153.6a81.92 81.92 0 0 0-81.92 81.92V696.576a81.92 81.92 0 0 0 81.92 81.92h237.1584z m0-61.44H153.6a20.48 20.48 0 0 1-20.48-20.48v-237.1072c0-11.3152 9.216-20.48 20.48-20.48h237.1584a20.48 20.48 0 0 1 20.48 20.48V696.576a20.48 20.48 0 0 1-20.48 20.48zM390.7584 293.4784a81.92 81.92 0 0 0 81.92-81.92V-25.6a81.92 81.92 0 0 0-81.92-81.92H153.6A81.92 81.92 0 0 0 71.68-25.6v237.1584a81.92 81.92 0 0 0 81.92 81.92h237.1584z m0-61.44H153.6a20.48 20.48 0 0 1-20.48-20.48V-25.6c0-11.264 9.216-20.48 20.48-20.48h237.1584a20.48 20.48 0 0 1 20.48 20.48v237.1584a20.48 20.48 0 0 1-20.48 20.48zM875.776 293.4784a81.92 81.92 0 0 0 81.92-81.92V-25.6a81.92 81.92 0 0 0-81.92-81.92h-237.1072a81.92 81.92 0 0 0-81.92 81.92v237.1584a81.92 81.92 0 0 0 81.92 81.92h237.1072z m0-61.44h-237.1072a20.48 20.48 0 0 1-20.48-20.48V-25.6c0-11.264 9.1648-20.48 20.48-20.48h237.1072a20.48 20.48 0 0 1 20.48 20.48v237.1584a20.48 20.48 0 0 1-20.48 20.48zM982.8352 635.904a81.92 81.92 0 0 0 0-115.8144l-167.68-167.68a81.92 81.92 0 0 0-115.8656 0l-167.68 167.68a81.92 81.92 0 0 0 0 115.8656l167.68 167.68a81.92 81.92 0 0 0 115.8656 0l167.68-167.68z m-43.4688-43.4176l-167.68 167.68a20.48 20.48 0 0 1-28.928 0l-167.68-167.68a20.48 20.48 0 0 1 0-28.928l167.68-167.68a20.48 20.48 0 0 1 28.928 0l167.68 167.68a20.48 20.48 0 0 1 0 28.928z"  horiz-adv-x="1024" />

    
    <glyph glyph-name="fengge2" unicode="&#58911;" d="M864.711 839.111c34.133 0 56.889-22.755 56.889-56.889V31.29c0-34.133-22.756-56.889-56.889-56.889H113.778c-34.134 0-56.89 22.756-56.89 56.889V782.222c0 34.134 22.756 56.89 56.89 56.89H864.71z m0-711.111H113.778v-91.022H864.71V128z m0 654.222H113.778V184.89H864.71V782.222z m-358.4-51.2l34.133-45.51C625.778 577.421 671.29 486.4 676.978 406.755v-11.378c0-96.711-79.645-170.667-170.667-170.667S341.333 292.978 335.644 384v11.378c0 11.378 0 22.755 5.69 34.133 11.377 73.956 62.577 164.978 147.91 273.067l17.067 28.444z m0-91.022l-5.689-5.689c-62.578-85.333-96.71-153.6-108.089-210.489v-28.444c5.69-62.578 56.89-108.09 113.778-108.09 62.578 0 113.778 51.2 113.778 113.779v11.377C614.4 469.334 580.267 543.29 506.31 640zM864.711 839.111c34.133 0 56.889-22.755 56.889-56.889V31.29c0-34.133-22.756-56.889-56.889-56.889H113.778c-34.134 0-56.89 22.756-56.89 56.889V782.222c0 34.134 22.756 56.89 56.89 56.89H864.71z m0-711.111H113.778v-91.022H864.71V128z m0 654.222H113.778V184.89H864.71V782.222z m-358.4-51.2l34.133-45.51C625.778 577.421 671.29 486.4 676.978 406.755v-11.378c0-96.711-79.645-170.667-170.667-170.667S341.333 292.978 335.644 384v11.378c0 11.378 0 22.755 5.69 34.133 11.377 73.956 62.577 164.978 147.91 273.067l17.067 28.444z m0-91.022l-5.689-5.689c-62.578-85.333-96.71-153.6-108.089-210.489v-28.444c5.69-62.578 56.89-108.09 113.778-108.09 62.578 0 113.778 51.2 113.778 113.779v11.377C614.4 469.334 580.267 543.29 506.31 640z"  horiz-adv-x="1024" />

    
    <glyph glyph-name="shouji" unicode="&#59076;" d="M507.648 140.48a48 48 0 1 1 0.128-95.872 48 48 0 0 1-0.128 95.872z m236.928 689.856H270.72a72.32 72.32 0 0 1-72.32-72.32v-731.264c0-39.872 32.448-72.32 72.32-72.32h473.856a72.32 72.32 0 0 1 72.32 72.32V758.016a72.32 72.32 0 0 1-72.32 72.32zM270.72 782.08h473.856c13.312 0 24.128-10.88 24.128-24.128v-531.84H246.592v531.84c0 13.312 10.88 24.128 24.128 24.128z m473.856-779.52H270.72a24.128 24.128 0 0 0-24.128 24.128v147.136h522.112v-147.2a24.128 24.128 0 0 0-24.128-24.064z"  horiz-adv-x="1024" />

    
    <glyph glyph-name="shuxing" unicode="&#58914;" d="M902.144 896H121.856A122.368 122.368 0 0 1 0 774.144v-780.288A122.368 122.368 0 0 1 121.856-128h780.288A122.368 122.368 0 0 1 1024-6.144V774.144A122.368 122.368 0 0 1 902.144 896z m73.216-902.144a73.216 73.216 0 0 0-73.216-73.216H121.856A73.216 73.216 0 0 0 51.2-6.144V774.144A73.216 73.216 0 0 0 121.856 844.8h780.288a73.216 73.216 0 0 0 73.216-73.216zM816.128 578.56h-173.568v33.792a73.216 73.216 0 0 1-73.216 73.216H454.656a73.216 73.216 0 0 1-73.216-73.216v-33.792H207.872a24.064 24.064 0 0 1-24.576-24.064 24.576 24.576 0 0 1 24.576-24.576h173.568v-32.768a73.216 73.216 0 0 1 73.216-73.216h114.688a73.216 73.216 0 0 1 73.216 73.216v32.768h173.568a24.576 24.576 0 0 1 24.576 24.576 24.064 24.064 0 0 1-24.576 24.064zM593.92 497.152a24.064 24.064 0 0 0-24.576-24.576H454.656a24.064 24.064 0 0 0-24.576 24.576V612.352a24.576 24.576 0 0 0 24.576 24.576h114.688a24.576 24.576 0 0 0 24.576-24.576zM816.128 237.568h-173.568v33.792a73.216 73.216 0 0 1-73.216 72.704H454.656a73.216 73.216 0 0 1-73.216-72.704v-33.792H207.872a24.576 24.576 0 1 1 0-51.2h173.568v-33.28a73.216 73.216 0 0 1 73.216-73.216h114.688a73.216 73.216 0 0 1 73.216 73.216v33.28h173.568a24.576 24.576 0 1 1 0 51.2z m-222.208-81.92a24.576 24.576 0 0 0-24.576-24.576H454.656a24.576 24.576 0 0 0-24.576 24.576V271.36a24.064 24.064 0 0 0 24.576 24.064h114.688a24.064 24.064 0 0 0 24.576-24.064z"  horiz-adv-x="1024" />

    
    <glyph glyph-name="shouji1" unicode="&#58932;" d="M256 810.667h512c64.8 0 117.333-52.534 117.333-117.334v-618.666c0-64.8-52.533-117.334-117.333-117.334H256c-64.8 0-117.333 52.534-117.333 117.334V693.333c0 64.8 52.533 117.334 117.333 117.334z m0-64a53.333 53.333 0 0 1-53.333-53.334v-618.666A53.333 53.333 0 0 1 256 21.333h512a53.333 53.333 0 0 1 53.333 53.334V693.333A53.333 53.333 0 0 1 768 746.667H256zM426.667 128a32 32 0 0 0 0 64h170.666a32 32 0 0 0 0-64H426.667z"  horiz-adv-x="1024" />

    
    <glyph glyph-name="feiji" unicode="&#58899;" d="M710.684-61.190000000000055a20.57 20.57 0 0 0-19.667 14.53L574.783 331.615 435.986 213.99800000000005l1.68-204.553a20.571 20.571 0 0 0-5.898-14.587l-34.362-34.976a20.574 20.574 0 0 0-33.866 6.996L289.167 159.14l-199.61 85.743a20.575 20.575 0 0 0-6.61 33.268l34.223 35.102a20.643 20.643 0 0 0 15.738 6.187l209.368-10.254L460.2 453.87 79.29 574.8330000000001a20.577 20.577 0 0 0-8.474 34.005l65.386 66.78a20.607 20.607 0 0 0 16.763 6.08l469.724-47.296 133.107 133.417c53.017 53.638 103.833 62.058 129.41 62.058h0.38c23.743 0 44.732-7.025 56.205-18.496 27.704-27.703 26.328-106.727-48.302-182.863-0.053-0.054-0.105-0.156-0.16-0.208L759.048 494.245l37.57-466.418a20.588 20.588 0 0 0-5.81-16.056l-65.425-66.782a20.584 20.584 0 0 0-14.698-6.18zM585.288 388.058a20.573 20.573 0 0 0 19.665-14.53l115.24-375.04 34.655 35.373-37.581 466.544a20.574 20.574 0 0 0 5.973 16.212L864.184 657.31c34.583 35.31 46.76 66.295 50.882 86.074 5.082 24.38-0.686 36.918-2.385 38.715-7.573 7.456-65.03 19.967-127.677-43.457a3.184 3.184 0 0 0-0.083-0.084L644.896 598.4100000000001a20.559 20.559 0 0 0-16.617-5.927l-469.596 47.28-35.078-35.827L501.49 483.932a20.574 20.574 0 0 0 9.722-32.608L367.604 275.12800000000004a20.6 20.6 0 0 0-16.955-7.553l-210.49 10.308-6.84-7.015 180.037-77.333a20.578 20.578 0 0 0 11.069-11.482l65.985-170.58 6.038 6.147-1.688 205.676a20.57 20.57 0 0 0 7.272 15.865L571.985 383.17999999999995a20.563 20.563 0 0 0 13.303 4.88z"  horiz-adv-x="1024" />

    
    <glyph glyph-name="iconfonticon4" unicode="&#58903;" d="M527.487228 847.436958 527.487228 847.436958c247.13868 0 447.478498-200.070688 447.478498-446.867584 0-246.798942-200.339818-446.868607-447.478498-446.868607-247.137657 0-447.482591 200.070688-447.482591 446.868607C80.004637 647.36627 280.350594 847.436958 527.487228 847.436958L527.487228 847.436958zM527.487228 785.50442c-100.254332 0-194.499809-39.909965-265.392416-110.699218-70.88442-70.794369-119.160937-174.137039-119.160937-274.250154s48.27754-203.459878 119.160937-274.249131c70.89056-70.794369 165.137061-109.780289 265.392416-109.780289 100.251262 0 203.739241 48.213072 274.622638 119.003348 70.889537 70.78823 109.932762 164.91398 109.932762 265.027096s-48.278563 194.23068-119.167077 265.023002C721.989083 736.367303 627.737466 785.50442 527.487228 785.50442L527.487228 785.50442zM354.562806 501.374244c1.161453 41.924855 3.344165 73.80596 12.090363 95.641267s20.888749 41.339524 40.134069 58.523905c19.24532 17.166985 40.672328 29.831422 64.288189 37.998429 23.61586 8.144494 48.543599 12.223393 74.783217 12.223393 53.055356 0 96.29823-18.355043 131.584897-49.498344 32.809243-28.981055 46.443775-72.057129 46.443775-121.694643 0-23.298636-3.602038-44.411489-12.634762-63.329351-9.04705-18.931165-21.814842-42.512233-51.254338-70.748321-29.445636-28.247344-48.977481-48.338938-58.599629-60.265572-9.619078-11.943007-16.919345-26.205848-21.862937-42.804898-4.964058-16.593933-6.563486-16.426111-6.563486-25.149796l-76.970022 0c0 11.059893 2.623757 16.990976 7.873318 36.508495 5.244444 19.505239 13.116739 36.535101 23.61586 51.094702 10.499122 14.553461 29.438473 35.954887 56.851822 64.198138 27.40107 28.236088 45.044916 48.764634 52.913117 61.579497 7.872295 12.801561 11.808954 31.879058 11.808954 57.20998 0 25.331945-9.042957 47.739281-27.114544 67.257823-18.080797 19.500123-44.316322 29.255301-78.716806 29.255301-77.556377 0-116.328425-46.001707-116.328425-137.998981L354.562806 501.374244 354.562806 501.374244 354.562806 501.374244 354.562806 501.374244zM574.468239 103.953839l-80.216973 0 0 89.094154 80.216973 0L574.468239 103.953839 574.468239 103.953839 574.468239 103.953839z"  horiz-adv-x="1024" />

    
    <glyph glyph-name="icon" unicode="&#58981;" d="M682.507372 495.060445c-6.304589 23.760147-14.045901 46.267766-22.691815 67.686588-80.645738-17.824971-106.931405 52.202942-73.087599 101.162004-12.589736 18.912745-30.946826 32.406061-56.166207 39.059598-33.843806-51.834552-126.175701-25.733081-117.8992 45.014216-26.466792 0-52.922327 0-79.023798 0 6.65763-75.797313-84.609003-91.816149-123.481336-45.014216-19.10001-12.589736-45.201481-17.990746-50.768267-44.811602 37.069267-44.460608 3.225461-113.954355-73.087599-95.411023-8.276501-21.419845-16.387225-43.926442-22.319331-67.686588 63.905472-10.082636 63.905472-108.000759 0-118.083395 5.933129-23.575952 14.042831-46.083571 22.319331-67.502393 80.645738 17.824971 107.650789-52.202942 73.087599-101.180424 12.773931-19.078521 30.949896-32.756031 56.516178-39.226397 33.843806 51.834552 126.009925 25.733081 117.733425-45.198411 26.101471 0 52.555983 0 79.023798 0-6.838755 76.148307 84.609003 92.000344 123.668601 45.198411 19.081591 12.589736 45.364187 18.359137 50.396807 44.995797-36.719296 44.645826-2.87549 113.77016 73.087599 95.411023 8.644891 21.419845 16.387225 43.926442 22.691815 67.502393C615.889115 393.364275 615.889115 478.857415 682.507372 495.060445zM373.23354 318.838931c-64.792679 0-117.177769 52.552913-117.177769 117.179816 0 64.811098 52.384068 117.179816 117.177769 117.179816 64.442708 0 117.198236-52.368718 117.198236-117.179816C490.432799 371.391844 437.676248 318.838931 373.23354 318.838931zM960.610274 200.017732c-2.157129 12.958126-4.497431 25.38311-7.90811 37.087687-43.739177-4.313236-53.824883 34.562167-32.220842 58.138118-6.119371 10.986215-14.765285 19.262716-27.723412 24.313755-20.884656-25.216311-68.771293-6.119371-59.594283 31.134091-13.861706 1.806135-27.723412 3.243881-41.936111 4.866844-0.719384-40.331567-50.231031-43.392276-67.871807-15.85306-11.336186-5.750981-25.197892-7.188726-29.693276-20.866237 16.734126-25.935696-5.40408-60.497862-44.833091-46.083571-5.750981-10.80202-11.336186-22.156626-16.018835-34.212196 33.124422-9.364275 27.005051-61.567217-7.188726-62.820768 1.787716-13.143345 4.313236-25.197892 7.557116-36.903491 43.926442 4.313236 53.640688-34.562167 32.756031-58.323337 5.40101-10.80202 14.045901-19.078521 26.820855-24.12956 21.419845 25.197892 68.590168 5.7694 59.761082-31.668257 14.230096-1.27197 28.27702-2.89391 41.769312-4.681626 1.25355 40.682561 50.765197 43.558052 68.409043 16.553001 10.983145 5.585205 25.010627 6.65456 29.693276 20.516266-16.553001 25.935696 5.40101 60.497862 44.645826 46.267766 5.585205 10.80202 11.17041 22.138206 16.018835 34.028001C919.042553 150.340309 924.078243 195.520301 960.610274 200.017732zM785.644357 125.860778c-34.381042 3.963265-58.676377 35.097356-54.897308 69.475328 4.497431 34.028001 34.912138 58.691727 69.291133 54.544267 34.212196-3.963265 59.225893-34.727942 54.547337-69.291133C851.17177 146.377044 820.019259 121.897513 785.644357 125.860778z"  horiz-adv-x="1024" />

    
    <glyph glyph-name="fanhui" unicode="&#58945;" d="M648 588.8H217.6l128 128c12.8 12.8 12.8 32 0 44.8-12.8 12.8-32 12.8-44.8 0L118.4 580.8c-6.4-6.4-9.6-14.4-9.6-22.4s3.2-16 9.6-22.4l180.8-180.8c12.8-12.8 32-12.8 44.8 0 12.8 12.8 12.8 32 0 44.8l-124.8 124.8h428.8c120 0 216-96 216-216s-96-216-216-216H320c-17.6 0-32-14.4-32-32s14.4-32 32-32h328c155.2 0 280 124.8 280 280s-124.8 280-280 280z"  horiz-adv-x="1024" />

    
    <glyph glyph-name="liuchenggaojigongneng" unicode="&#58912;" d="M761 82.7c-18.3-3-37 2.8-50.1 15.7s-19.1 31.2-16 49.1c3.8 23.2 23 42 46.7 45.9 18.4 3.1 37.1-2.7 50.3-15.6 13.2-12.9 19.1-31.3 15.9-49.3-3.9-23.4-23.1-42.1-46.8-45.8m134.4 36.1l27 16.5c4.3 2.6 6.4 7.6 5.3 12.4l-13.2 56.8c-1.1 4.8-5.2 8.4-10.3 9l-31.7 3.4c-3.2 0.3-6 1.9-8 4.3l-5.3 6.5c-2 2.4-2.9 5.5-2.5 8.6l3.6 31c0.6 4.9-2.1 9.7-6.6 11.8l-53.6 25.3c-4.5 2.1-10 1.2-13.6-2.3L764 280.2c-2.2-2.2-5.2-3.4-8.4-3.4h-8.5c-3.2 0-6.2 1.2-8.4 3.4l-22.5 22.1c-3.6 3.5-9 4.4-13.6 2.3L649 279.3c-4.5-2.2-7.2-6.9-6.6-11.8l3.6-31c0.4-3.1-0.5-6.1-2.5-8.6l-5.3-6.5c-2-2.4-4.8-4-8-4.3l-31.7-3.5c-5-0.5-9.1-4.1-10.3-9L575 147.8c-1.1-4.8 1-9.8 5.3-12.4l27-16.6c2.7-1.6 4.6-4.3 5.3-7.3l1.9-8.1c0.7-3 0.2-6.2-1.5-8.8l-17-26.4c-2.7-4.2-2.4-9.6 0.8-13.5l37.1-45.5c3.2-3.9 8.5-5.4 13.2-3.7l30.1 10.4c3 1 6.3 0.9 9.1-0.5l7.7-3.6c2.9-1.4 5-3.7 6.1-6.7l10.5-29.5c1.7-4.7 6.2-7.8 11.2-7.8h59.5c5.1 0 9.6 3.2 11.2 7.8l10.5 29.5c1 2.9 3.2 5.3 6.1 6.7l7.7 3.6c2.8 1.4 6.1 1.5 9.1 0.5l30.1-10.4c4.8-1.6 10.1-0.2 13.2 3.7l37.1 45.5c3.2 3.9 3.4 9.3 0.8 13.5l-17 26.4c-1.7 2.6-2.3 5.8-1.6 8.8l1.9 8.1c0.4 3.1 2.3 5.7 5 7.3M507.9 342l45.7-45.7 51.9 51.9c-2.8 25.4 5.6 51.6 24.8 71 19.4 19.4 45.7 27.6 71 24.8l226.9 226.9L801.1 797.8 574.4 571.1c2.8-25.3-5.4-51.6-24.8-71s-45.7-27.6-71-24.8l-51.9-51.9 45.7-45.7-224.1-224.1-8.2 8.2-43.1-34.7-72.3-114.2 18.4-18.6 114.2 72.3 34.8 43.1-8.3 8.2L507.9 342zM330.3 433c0.1-0.1 0.3-0.4 0.6-0.6l83.6-83.7 29.2 29.2-45.7 45.7 72.9 72.9 9.6-1c2.5-0.3 5-0.4 7.5-0.4 5 0 9.9 0.6 14.8 1.8L449 550.5c-1 1.2-2.2 2-3.4 3.2 16.7 59.5 1.5 125.9-45.3 172.7-46.5 46.4-112.3 61.6-171.4 45.7l100.2-100.4-26.3-98.2-98.3-26.3-100.2 100.3c-15.9-59.2-0.7-125 45.7-171.5 48.6-48.7 118.9-63 180.3-43zM680.4 319.1L626.5 373c-1.6-7.2-2-14.6-1.3-22.2l1.2-9.6-58.7-58.7-14.3-14.2-45.7 45.6-29.1-29.1 86.9-86.9c18.2 55.5 60.6 100.1 114.9 121.2z"  horiz-adv-x="1024" />

    
    <glyph glyph-name="baocun1" unicode="&#58951;" d="M819 831H205c-77.2 0-140-62.8-140-140v-614c0-77.2 62.8-140 140-140h614c77.2 0 140 62.8 140 140V691c0 77.2-62.8 140-140 140z m-459.4-80h304.8v-260.8c0-31.6-25.7-57.4-57.4-57.4H416.9c-31.6 0-57.4 25.7-57.4 57.4V751zM879 77c0-33.1-26.9-60-60-60H205c-33.1 0-60 26.9-60 60V691c0 33.1 26.9 60 60 60h74.6v-260.8c0-75.7 61.6-137.4 137.4-137.4h190.1c75.7 0 137.4 61.6 137.4 137.4V751H819c33.1 0 60-26.9 60-60v-614zM574.3 502.9c22.1 0 40 17.9 40 40v93.8c0 22.1-17.9 40-40 40s-40-17.9-40-40v-93.8c0-22 17.9-40 40-40z"  horiz-adv-x="1024" />

    
    <glyph glyph-name="daochu" unicode="&#58960;" d="M469.333333 298.666667a42.666667 42.666667 0 0 0 42.666667 42.666666h193.322667l-52.693334 52.693334a44.330667 44.330667 0 0 0 62.677334 62.677333l125.397333-125.397333a44.117333 44.117333 0 0 0 8.874667-49.322667 43.648 43.648 0 0 0-10.112-16.810667l-124.629334-124.629333a44.032 44.032 0 0 0-62.293333 62.293333L705.706667 256H512a42.666667 42.666667 0 0 0-42.666667 42.666667z m-256-341.333334h597.333334a85.333333 85.333333 0 0 1 85.333333 85.333334v85.333333a42.666667 42.666667 0 0 1-85.333333 0v-42.666667a42.666667 42.666667 0 0 0-42.666667-42.666666H256a42.666667 42.666667 0 0 0-42.666667 42.666666V682.666667a42.666667 42.666667 0 0 0 42.666667 42.666666h512a42.666667 42.666667 0 0 0 42.666667-42.666666v-213.333334a42.666667 42.666667 0 0 1 85.333333 0V725.333333a85.333333 85.333333 0 0 1-85.333333 85.333334H213.333333a85.333333 85.333333 0 0 1-85.333333-85.333334v-682.666666a85.333333 85.333333 0 0 1 85.333333-85.333334z"  horiz-adv-x="1024" />

    
    <glyph glyph-name="daoru" unicode="&#58961;" d="M213.333333 298.666667a42.666667 42.666667 0 0 0 42.666667 42.666666h193.322667l-52.693334 52.693334a44.330667 44.330667 0 0 0 62.677334 62.677333l125.397333-125.397333a44.117333 44.117333 0 0 0 8.874667-49.322667 43.648 43.648 0 0 0-10.112-16.810667l-124.629334-124.629333a44.032 44.032 0 0 0-62.293333 62.293333L449.706667 256H256a42.666667 42.666667 0 0 0-42.666667 42.666667z m597.333334-341.333334H213.333333a85.333333 85.333333 0 0 0-85.333333 85.333334v85.333333a42.666667 42.666667 0 0 0 85.333333 0v-42.666667a42.666667 42.666667 0 0 1 42.666667-42.666666h512a42.666667 42.666667 0 0 1 42.666667 42.666666V682.666667a42.666667 42.666667 0 0 1-42.666667 42.666666H256a42.666667 42.666667 0 0 1-42.666667-42.666666v-213.333334a42.666667 42.666667 0 0 0-85.333333 0V725.333333a85.333333 85.333333 0 0 0 85.333333 85.333334h597.333334a85.333333 85.333333 0 0 0 85.333333-85.333334v-682.666666a85.333333 85.333333 0 0 0-85.333333-85.333334z"  horiz-adv-x="1024" />

    
    <glyph glyph-name="duowenjian" unicode="&#59173;" d="M512 0a98.517 98.517 0 0 0-46.93 11.99l-276.4 150.66c-31.81 17.26-43.6 57.05-26.34 88.86a65.605 65.605 0 0 0 26.34 26.34l44.71 24.41-44.71 24.23c-31.81 17.26-43.6 57.05-26.34 88.86a65.605 65.605 0 0 0 26.34 26.34l44.71 24.23-44.71 24.36c-31.81 17.26-43.6 57.05-26.34 88.86a65.605 65.605 0 0 0 26.34 26.34l276.27 150.49a98.16 98.16 0 0 0 94.17 0l276.22-150.66c31.81-17.26 43.6-57.05 26.34-88.86a65.605 65.605 0 0 0-26.34-26.34l-44.67-24.36 44.67-24.41c31.81-17.26 43.6-57.05 26.34-88.86a65.605 65.605 0 0 0-26.34-26.34l-44.67-24.36 44.67-24.41c31.81-17.26 43.6-57.05 26.34-88.86a65.605 65.605 0 0 0-26.34-26.34L559.06 12.03A98.717 98.717 0 0 0 512 0zM301.78 264.79l-81.75-44.59L496.3 69.5a32.75 32.75 0 0 1 31.36 0l276.31 150.7-81.96 44.59-162.94-89a98.16 98.16 0 0 0-94.17 0l-163.12 89z m0 163.75L220.03 384 496.3 233.3a32.75 32.75 0 0 1 31.36 0L803.97 384l-81.96 44.59-162.94-88.96a98.16 98.16 0 0 0-94.17 0l-163.12 88.91zM512 702.46c-5.49-0.01-10.88-1.39-15.7-4.01L220.03 547.8 496.3 397.1a32.75 32.75 0 0 1 31.36 0l276.31 150.7-276.31 150.7c-4.8 2.63-10.19 4-15.66 4.01v-0.05z"  horiz-adv-x="1024" />

    
    <glyph glyph-name="wenjian2" unicode="&#59180;" d="M704 0H320c-52.99 0.07-95.93 43.01-96 96V672c0.07 52.99 43.01 95.93 96 96h224c8.49 0.03 16.64-3.35 22.61-9.39l224.04-224a32.105 32.105 0 0 0 9.34-22.61v-416c-0.06-52.99-43-95.93-95.99-96zM320 704c-17.66-0.02-31.98-14.34-32-32v-576c0.02-17.66 14.34-31.98 32-32h384c17.66 0.02 31.98 14.34 32 32V480H608c-52.99 0.07-95.93 43.01-96 96V704H320z m256-45.23V576c0.02-17.66 14.34-31.98 32-32h82.73L576 658.77z"  horiz-adv-x="1024" />

    
    <glyph glyph-name="haibaofenxiang" unicode="&#58955;" d="M653.23425693-50.48362734h-486.64987383c-58.60957148 0-104.5843831 46.54911797-104.5843831 102.41813583V731.59193994C62 789.00251894 109.56675078 833.94962198 166.62468536 833.94962198h694.20654931c58.64987373 0 104.61460957-46.54911797 104.61460957-102.40806007v-476.33249355c0-18.61964737-15.84886641-34.13602002-34.86146133-34.13602089s-34.87153623 15.51637266-34.87153623 34.13602089V731.59193994c0 18.61964737-15.85894219 34.13602002-34.88161201 34.13602003h-694.20654931c-19.02266982 0-34.87153623-15.51637266-34.87153711-34.13602003V51.934508489999985c0-18.61964737 15.84886641-34.1460958 34.87153711-34.14609579h486.64987382c19.01259404 0 34.86146133-15.51637266 34.86146133-34.13602002s-15.84886641-34.13602002-34.86146133-34.13602002z m0 0M96.88161201 151.23929472999998c-9.51133535 0-17.43073067 3.10327471-23.7783375 10.86146103-14.25692724 13.91435771-14.25692724 35.68765781-0.02015068 48.11083155l172.79596934 170.69017587c31.69773281 31.03274531 79.24433291 38.79093164 120.46347597 18.61964737l187.03274589-93.1083126c12.67506299-6.20654942 30.11586943-4.65491162 39.62720392 6.20654942l312.24181376 308.79596953c14.26700215 13.96473575 34.87153623 13.96473575 49.13853926 0s14.26700215-35.68765781 0-48.10075576L643.71284667 264.51889160999997c-31.69773281-31.03274531-79.24433291-38.79093164-120.45340107-18.61964737l-188.62468505 93.09823682c-12.67506299 6.20654942-30.11586943 4.65491162-39.62720391-6.20654942L122.24181377 162.10075575999997c-7.91939531-7.75818633-15.84886641-10.86146104-25.36020176-10.86146103z m274.21662481 341.38035264c-57.06801035 0-103.03274531 45.00755683-103.03274531 100.86649892S314.03022646 694.35264521 371.09823682 694.35264521s102.99244307-45.00755683 102.99244306-100.86649892-45.93450849-100.86649893-102.99244306-100.86649892z m-7.9294711 139.65743056c-17.44080645 0-31.70780859-13.96473575-31.70780859-31.03274531s14.26700215-31.03274531 31.70780859-31.03274531 31.69773281 13.96473575 31.69773282 31.03274531-14.26700215 31.03274531-31.69773282 31.03274531z m427.95969785-698.23677569c-17.44080645 0-31.70780859 15.51637266-31.70780859 34.13602003V179.16876533000004c0 18.61964737 14.26700215 34.1460958 31.70780859 34.1460958s31.69773281-15.52644844 31.69773281-34.1460958v-209.48110752c0-20.15113359-14.26700215-35.68765781-31.69773281-35.68765781z m0 0M930.61460937 89.17380321999997c-7.92947109 0-17.44080645 3.10327471-23.77833749 9.30982412L791.12846357 202.45340009999995 675.42065527 98.43324931999996c-14.26700215-12.41309795-36.46347627-12.41309795-49.13853925 1.55163691s-12.67506299 34.13602002 1.58186425 46.54911885l122.05541514 110.2267002c9.50125958 12.41309795 25.36020176 18.61964737 41.20906816 18.61964735s31.69773281-6.20654942 41.20906817-18.61964735l122.04534023-110.17632218a31.88916914 31.88916914 0 0 0 1.58186339-46.54911884c-6.33753106-7.75818633-15.84886641-10.86146104-25.35012599-10.86146103z m1e-8 0"  horiz-adv-x="1027" />

    
    <glyph glyph-name="wenjian3" unicode="&#58923;" d="M582.4 827.744v-232.128l0.16-4.992a72.96 72.96 0 0 1 72.8-67.968h232.096v-514.112a68.256 68.256 0 0 0-68.256-68.288H204.8a68.256 68.256 0 0 0-68.256 68.288V759.456c0 37.728 30.56 68.288 68.256 68.288h377.6z m78.848-28.128l198.08-198.08a96 96 0 0 0 12.192-14.88H655.36l-2.048 0.256a8.96 8.96 0 0 0-6.912 8.704V811.744a96 96 0 0 0 14.848-12.128z"  horiz-adv-x="1024" />

    
    <glyph glyph-name="gaojibaobiaoshezhi" unicode="&#58934;" d="M652.515556 290.133333a82.773333 82.773333 0 1 1 104.675555-51.484444 82.488889 82.488889 0 0 1-104.675555 51.484444z m34.986666-102.4a25.6 25.6 0 1 0 15.928889 32.426667 25.6 25.6 0 0 0-15.928889-32.426667zM849.635556 249.742222a58.311111 58.311111 0 0 0-8.817778 15.928889 61.44 61.44 0 0 0-2.844445 18.773333 60.017778 60.017778 0 0 0 33.848889 54.897778A224.142222 224.142222 0 0 1 833.991111 384a227.555556 227.555556 0 0 1-39.537778 28.444444 245.191111 245.191111 0 0 1-54.897777 20.764445 60.586667 60.586667 0 0 0-16.497778-36.977778 62.862222 62.862222 0 0 0-20.764445-13.653333 56.888889 56.888889 0 0 0-21.902222-4.551111 59.448889 59.448889 0 0 0-60.586667 53.76l-11.662222-3.128889a233.244444 233.244444 0 0 1-41.813333-19.342222 242.631111 242.631111 0 0 1-39.822222-29.866667 223.857778 223.857778 0 0 1-36.977778-44.942222 60.017778 60.017778 0 0 0 30.72-28.444445 64.284444 64.284444 0 0 0 6.826667-22.471111 66.275556 66.275556 0 0 0-2.56-23.608889A60.017778 60.017778 0 0 0 455.111111 219.875556a227.555556 227.555556 0 0 1 21.617778-104.106667 216.462222 216.462222 0 0 1 31.573333-48.64 60.302222 60.302222 0 0 0 61.724445 17.92 56.888889 56.888889 0 0 0 17.92-8.248889 60.871111 60.871111 0 0 0 13.368889-13.653333 59.448889 59.448889 0 0 0 5.12-64 223.573333 223.573333 0 0 1 104.106666-11.662223 231.537778 231.537778 0 0 1 45.226667 10.524445l10.524444 3.982222a60.017778 60.017778 0 0 0 5.12 65.706667 56.888889 56.888889 0 0 0 11.377778 11.946666 59.164444 59.164444 0 0 0 14.506667 7.68 60.586667 60.586667 0 0 0 64.568889-13.653333 229.831111 229.831111 0 0 1 28.444444 49.777778 225.848889 225.848889 0 0 1 14.222222 45.226667 215.893333 215.893333 0 0 1 4.266667 56.888888 60.586667 60.586667 0 0 0-59.164444 24.177778z m-9.955556-103.253333a116.622222 116.622222 0 0 1-90.453333-21.333333 116.622222 116.622222 0 0 1-45.795556-82.488889 168.675556 168.675556 0 0 0-33.848889 0 116.337778 116.337778 0 0 1-142.222222 98.133333 172.657778 172.657778 0 0 0-6.826667 16.782222 144.497778 144.497778 0 0 0-4.266666 14.791111 116.622222 116.622222 0 0 1 54.613333 160.711111l-3.697778 5.688889a183.751111 183.751111 0 0 0 26.453334 19.911111 116.906667 116.906667 0 0 1 170.666666-2.56l3.413334 3.982223a163.84 163.84 0 0 0 28.444444-19.342223 115.768889 115.768889 0 0 1-8.533333-93.866666 117.475556 117.475556 0 0 1 62.862222-68.835556 201.671111 201.671111 0 0 0-10.808889-31.573333zM875.52 836.551111h-178.915556V867.555556a28.444444 28.444444 0 0 1-56.888888 0v-31.004445h-369.777778V867.555556a28.444444 28.444444 0 0 1-56.888889 0v-31.004445H34.702222A34.702222 34.702222 0 0 1 0 801.848889v-781.368889A34.702222 34.702222 0 0 1 34.702222-14.222222H398.222222v56.888889H56.888889V779.662222h156.728889V748.088889a28.444444 28.444444 0 1 1 56.888889 0V779.662222h369.777777V748.088889a28.444444 28.444444 0 0 1 56.888889 0V779.662222H853.333333v-287.857778h56.888889V801.848889a34.702222 34.702222 0 0 1-34.702222 34.702222zM170.666667 479.004444h56.888889v-338.773333H170.666667zM341.333333 651.946667h56.888889v-512h-56.888889zM682.666667 587.093333h56.888889v-93.866666h-56.888889z"  horiz-adv-x="1152" />

    
    <glyph glyph-name="wenjianjia2" unicode="&#58891;" d="M324.748 821a110.487 110.487 0 0 0 75.813-30.11l1.019-0.974 47.642-46.103a50.639 50.639 0 0 1 34.15-14.236l1.064-0.01h206.51c50.566 0 94.675-34.32 107.08-83.315l9.914-39.151 48.519-0.001c44.482 0 80.541-36.041 80.541-80.5a80.462 80.462 0 0 0-3.847-24.581l-130.612-407.1C791.85 61.6 760.853 39 725.846 39H132.194c-44.482 0-80.541 36.041-80.541 80.5 0 0.904 0.015 1.806 0.046 2.708H51V710.6c0 60.554 46.374 109.414 106.334 110.385l1.821 0.015h165.593z m531.71-273.7H277.754a20.71 20.71 0 0 1-19.273-13.121l-0.23-0.613-145.559-407.1a20.69 20.69 0 0 1-1.208-6.966c0-11.228 8.945-20.368 20.1-20.691l0.611-0.009h593.652a20.71 20.71 0 0 1 19.521 13.786l0.2 0.593 130.613 407.1a20.69 20.69 0 0 1 0.99 6.321c0 11.228-8.945 20.368-20.1 20.691l-0.611 0.009z m-531.71 213.9H159.155c-26.973 0-47.902-21.498-48.318-49.742l-0.006-0.858-0.001-411.639 91.08 254.73c11.452 32.03 41.811 53.409 75.843 53.409l468.47 0.001-6.198 24.48c-5.615 22.175-25.4 37.791-48.211 38.178l-0.868 0.007h-206.51a110.487 110.487 0 0 0-75.813 30.11l-1.019 0.974-47.641 46.103a50.639 50.639 0 0 1-34.15 14.236l-1.065 0.011z"  horiz-adv-x="1024" />

    
    <glyph glyph-name="wenjian" unicode="&#58905;" d="M908.8 524.8c-12.8-12.8-25.6-19.2-44.8-19.2v-537.6H160v832h409.6c0 32 25.6 57.6 57.6 64H128C108.8 864 96 851.2 96 832v-896c0-6.4 6.4-19.2 6.4-25.6s12.8-6.4 25.6-6.4h768c19.2 0 32 12.8 32 32V569.6c0-19.2-6.4-32-19.2-44.8zM864 569.6zM633.6 800zM928 576zM569.6 800v-230.4c0-38.4 25.6-64 64-64H864c19.2 0 32 6.4 44.8 19.2 12.8 12.8 19.2 25.6 19.2 38.4v6.4c0 12.8-6.4 32-19.2 38.4L678.4 838.4C665.6 857.6 652.8 864 633.6 864h-6.4c-32-6.4-57.6-32-57.6-64zM864 569.6H633.6V800L864 569.6z"  horiz-adv-x="1024" />

    
    <glyph glyph-name="wenjian1" unicode="&#58930;" d="M750.592-61.44H273.92c-82.944 0-150.016 67.072-150.016 150.016V679.424C123.904 762.368 190.976 829.44 273.92 829.44h138.752c13.824 0 25.088-11.264 25.088-25.088s-11.264-25.088-25.088-25.088H273.92C218.624 779.264 174.08 734.208 174.08 679.424v-591.36c0-55.296 45.056-99.84 99.84-99.84h476.672c55.296 0 99.84 45.056 99.84 99.84V478.208h-197.632c-32.256 0-62.976 12.8-85.504 35.84-23.04 23.04-35.328 53.248-35.328 86.016l1.024 204.8c0 10.24 6.144 18.944 15.36 23.04s19.968 2.048 27.136-4.608L893.44 522.24l0.512-0.512 0.512-0.512c4.096-4.608 6.656-10.752 6.656-17.408v-415.232c-1.024-82.944-68.096-150.016-150.528-150.016zM582.144 746.496l-0.512-146.944c0-18.944 7.168-36.864 20.48-50.176s31.232-20.992 50.176-20.992h159.744l-229.888 218.112zM700.416 297.984H323.584c-13.824 0-25.088 11.264-25.088 25.088s11.264 25.088 25.088 25.088h376.832c13.824 0 25.088-11.264 25.088-25.088 0-14.336-11.264-25.088-25.088-25.088z m0-149.504H323.584c-13.824 0-25.088 11.264-25.088 25.088s11.264 25.088 25.088 25.088h376.832c13.824 0 25.088-11.264 25.088-25.088s-11.264-25.088-25.088-25.088z"  horiz-adv-x="1024" />

    
    <glyph glyph-name="wenjianjiakaifolder-open" unicode="&#58897;" d="M1055.9 448H960v96c0 53.02-42.98 96-96 96H544L416 768H96c-53.02 0-96-42.98-96-96v-576c0-53.02 42.98-96 96-96h770.114c56.136 0 108.27 29.466 137.198 77.68l134.906 224.928C1176.48 366.376 1130.57 448 1055.9 448zM96 704h293.49l128-128H864c17.674 0 32-14.326 32-32v-96H342.354c-56.136 0-108.27-29.466-137.198-77.68L64 135.06V672c0 17.674 14.326 32 32 32z m987.39-368.464L948.432 110.608A95.994 95.994 0 0 0 866.114 64H89.646L253.68 337.392A96 96 0 0 0 336 384h719.95c24.874 0 40.238-27.136 27.44-48.464z"  horiz-adv-x="1152" />

    
    <glyph glyph-name="jian" unicode="&#59473;" d="M896 896a128 128 0 0 0 128-128v-768a128 128 0 0 0-128-128H128a128 128 0 0 0-128 128V768a128 128 0 0 0 128 128h768z m0-51.2H128A76.8 76.8 0 0 1 51.584 775.872L51.2 768v-768a76.8 76.8 0 0 1 68.928-76.416L128-76.8h768a76.8 76.8 0 0 1 76.416 68.928L972.8 0V768A76.8 76.8 0 0 1 903.872 844.416L896 844.8z m-96-428.8a32 32 0 1 0 0-64h-576a32 32 0 0 0 0 64h576z"  horiz-adv-x="1024" />

    
    <glyph glyph-name="jia" unicode="&#58888;" d="M904 832c30.9 0 56-25.1 56-56v-784c0-30.9-25.1-56-56-56H120c-30.9 0-56 25.1-56 56V776c0 30.9 25.1 56 56 56h784m0 64H120C53.7 896 0 842.3 0 776v-784c0-66.3 53.7-120 120-120h784c66.3 0 120 53.7 120 120V776c0 66.3-53.7 120-120 120zM736 416H288c-17.7 0-32-14.3-32-32s14.3-32 32-32h448c17.7 0 32 14.3 32 32s-14.3 32-32 32zM480 608v-448c0-17.7 14.3-32 32-32s32 14.3 32 32V608c0 17.7-14.3 32-32 32s-32-14.3-32-32z"  horiz-adv-x="1024" />

    
    <glyph glyph-name="wenjianjia1" unicode="&#58922;" d="M896 569.6v38.4c0 51.2-44.8 96-96 96h-320-19.2-6.4l-115.2 57.6c-6.4 0-6.4 6.4-12.8 6.4H320 160C108.8 768 64 723.2 64 672v-576c0-51.2 44.8-96 96-96h704c51.2 0 96 44.8 96 96v384c0 44.8-25.6 76.8-64 89.6zM192 480v-384c0-19.2-12.8-32-32-32s-32 12.8-32 32v576c0 19.2 12.8 32 32 32H320l108.8-57.6c6.4 0 6.4-6.4 12.8-6.4h358.4c19.2 0 32-12.8 32-32V576H288C236.8 576 192 531.2 192 480z m704-384c0-19.2-12.8-32-32-32H256V480c0 19.2 12.8 32 32 32h576c19.2 0 32-12.8 32-32v-384z"  horiz-adv-x="1024" />

    
    <glyph glyph-name="guanli" unicode="&#58885;" d="M878.592 114.68799999999999q4.096-14.336 7.168-36.352t3.072-44.544-3.584-42.496-10.752-30.208q-5.12-7.168-26.112-13.824t-52.736-12.288-70.656-10.752-77.824-8.704-75.776-5.12-64.512-1.536-64 2.048-74.752 5.12-76.288 7.168-69.12 9.216-53.248 9.728-27.136 9.728q-9.216 7.168-14.336 45.568t4.096 99.84q5.12 34.816 28.16 53.248t53.248 29.184 63.488 18.944 57.856 24.576q19.456 12.288 30.208 23.552t15.36 22.528 4.608 23.552-1.024 27.648q-2.048 22.528-14.848 34.816t-28.16 25.6q-8.192 6.144-13.824 17.92t-10.752 24.064q-5.12 13.312-9.216 29.696-2.048 2.048-6.144 7.168-3.072 5.12-7.168 13.824t-9.216 25.088-6.656 29.184 0.512 22.016q1.024 11.264 5.12 19.456 0 35.84 4.096 71.68 4.096 29.696 13.312 64.512t29.696 62.464q18.432 25.6 39.936 42.496t44.544 26.112 46.592 12.8 45.056 3.584q23.552-2.048 38.4-5.632t24.064-8.704 15.872-12.288 13.824-14.336l19.456 0q9.216 0 17.92-2.56t17.408-9.728 18.944-20.48q23.552-30.72 34.816-67.072t16.384-69.12q5.12-37.888 6.144-74.752 2.048-5.12 3.072-12.288t1.536-17.408-1.536-25.6q-2.048-20.48-6.144-32.256t-9.216-17.92q-5.12-7.168-11.264-10.24-4.096-16.384-9.216-29.696-5.12-12.288-10.752-24.064t-13.824-17.92q-17.408-14.336-28.672-24.064t-15.36-33.28q-3.072-14.336-2.048-28.672t7.68-29.184 21.504-28.16 41.472-23.552q23.552-9.216 51.712-16.896t54.272-17.408 46.592-25.088 28.672-39.936zM549.888 148.48000000000002q3.072 6.144 0.512 12.8t-7.68 12.8-12.288 13.312l-47.104 0q-7.168-7.168-11.264-13.312-4.096-5.12-6.656-11.264t0.512-11.264q7.168-14.336 12.288-25.088t11.264-16.896q-2.048-9.216-6.144-26.112t-7.68-34.816-6.144-33.792-2.56-24.064q0-5.12 4.608-12.288t10.752-14.848 12.8-12.8 11.776-5.12 12.288 5.12 13.824 11.776 11.264 14.336 4.608 12.8q0 6.144-3.072 20.992t-6.656 33.28-7.68 35.84-7.168 27.648q6.144 5.12 11.776 14.848t13.824 26.112z"  horiz-adv-x="1024" />

    
    <glyph glyph-name="guanyu" unicode="&#58898;" d="M505.120953 895.952644a511.952964 511.952964 0 1 1 13.758736-1023.905928 511.952964 511.952964 0 0 1-13.758736 1023.905928z m56.762785-170.672319c52.02722 0 67.385809-30.141231 67.385809-64.698056 0-43.132037-34.556825-83.000374-93.49541-83.000374-49.275473 0-72.761315 24.765725-71.353444 65.721961 0 34.556825 28.989337 81.976468 97.463045 81.976469zM428.455997 64.029077c-35.580731 0-61.626338 21.566019-36.732625 116.4693l40.764255 168.304537c7.039353 27.005519 8.255242 37.820525 0 37.820525-10.623024 0-56.826779-18.622289-84.152269-36.988602l-17.726371 29.117325c86.520051 72.185368 186.030908 114.549476 228.650992 114.549476 35.580731 0 41.46819-42.044137 23.677825-106.742193l-46.715708-176.943743c-8.255242-31.293125-4.671571-42.108131 3.583671-42.108132 10.623024 0 45.627808 12.926812 79.99265 39.996326l20.094154-27.005519C555.804297 96.410102 464.036728 64.029077 428.455997 64.029077z"  horiz-adv-x="1024" />

    
    <glyph glyph-name="tuichu" unicode="&#58910;" d="M512 896a512 512 0 1 1 512-512A512 512 0 0 1 512 896z m304.128-432.128L648.533333 296.277333a26.282667 26.282667 0 0 0-45.738666 19.456v83.626667a349.866667 349.866667 0 0 1-276.821334-170.666667 26.282667 26.282667 0 0 0-22.528-12.629333 22.869333 22.869333 0 0 0-8.192 0 25.941333 25.941333 0 0 0-17.749333 26.965333 350.890667 350.890667 0 0 0 325.973333 318.464V651.264a25.941333 25.941333 0 0 0 16.042667 24.234667 26.282667 26.282667 0 0 0 28.330667-5.802667l167.936-170.666667a26.282667 26.282667 0 0 0 0.341333-35.157333z"  horiz-adv-x="1024" />

    
    <glyph glyph-name="home-copy" unicode="&#58886;" d="M562.805 815.3025a72.135 72.135 0 0 1-96.93 0L73.925 443.13a36.1575 36.1575 0 0 1 48.42-53.7075l6.2325 5.9175V6.899999999999977a72.315 72.315 0 0 1 72.315-72.405h210.4425v217.71a50.9175 50.9175 0 0 0 50.94 50.985h99.0225a50.9175 50.9175 0 0 0 50.94-50.985v-217.71h215.4375a72.315 72.315 0 0 1 72.3375 72.405V390.5925c16.065-14.535 38.8575-13.4325 52.2225 1.4625a36.1575 36.1575 0 0 1-2.61 51.075L562.805 815.28z"  horiz-adv-x="1024" />

    
    <glyph glyph-name="geren" unicode="&#58887;" d="M512 896c282.769408 0 512-229.230592 512-512s-229.230592-512-512-512S0 101.230592 0 384 229.230592 896 512 896z m0-39.936C251.286528 856.064 39.936 644.713472 39.936 384s211.350528-472.064 472.064-472.064 472.064 211.350528 472.064 472.064S772.713472 856.064 512 856.064zM577.236992 80.896H446.763008C323.012608 80.896 225.28 80.896 225.28 144.360448v12.683264C225.28 276.001792 324.65408 372.736 446.763008 372.736h130.46272C699.334656 372.736 798.72 275.980288 798.72 157.054976v-12.694528C798.697472 80.896 696.040448 80.896 577.236992 80.896zM501.248 384C404.952064 384 326.656 462.10048 326.656 558.091264S404.963328 732.16 501.248 732.16 675.84 654.082048 675.84 558.091264 597.521408 384 501.248 384z"  horiz-adv-x="1024" />

    
    <glyph glyph-name="xiancheng" unicode="&#58954;" d="M658.724571 469.577143h-294.034285c-24.283429 0-43.995429 20.114286-43.995429 44.909714V814.445714c0 24.795429 19.748571 44.909714 44.032 44.909715h293.997714c24.283429 0 43.995429-20.114286 43.995429-44.909715v-299.995428c0-24.795429-19.712-44.909714-43.995429-44.909715z m-274.029714 65.316571h254.025143V794.075429h-254.025143v-259.181715zM928.548571 272.822857h-64v65.718857a0.219429 0.219429 0 0 1-0.146285 0.146286H162.377143v-66.450286H98.377143V340.114286c0 35.254857 28.013714 63.853714 62.573714 63.890285h703.414857c35.401143-0.036571 64.109714-29.330286 64.146286-65.462857v-65.682285zM479.707429 487.68h64v-214.784h-64zM0 272.896m32.694857 0l190.646857 0q32.694857 0 32.694857-32.694857l0 0q0-32.694857-32.694857-32.694857l-190.646857 0q-32.694857 0-32.694857 32.694857l0 0q0 32.694857 32.694857 32.694857ZM0 142.08m32.694857 0l190.646857 0q32.694857 0 32.694857-32.694857l0 0q0-32.694857-32.694857-32.694857l-190.646857 0q-32.694857 0-32.694857 32.694857l0 0q0 32.694857 32.694857 32.694857ZM383.670857 272.896m32.694857 0l190.646857 0q32.694857 0 32.694858-32.694857l0 0q0-32.694857-32.694858-32.694857l-190.646857 0q-32.694857 0-32.694857 32.694857l0 0q0 32.694857 32.694857 32.694857ZM383.670857 142.811429m32.694857 0l190.646857 0q32.694857 0 32.694858-32.694858l0 0q0-32.694857-32.694858-32.694857l-190.646857 0q-32.694857 0-32.694857 32.694857l0 0q0 32.694857 32.694857 32.694858ZM767.122286 272.896m32.694857 0l190.646857 0q32.694857 0 32.694857-32.694857l0 0q0-32.694857-32.694857-32.694857l-190.646857 0q-32.694857 0-32.694857 32.694857l0 0q0 32.694857 32.694857 32.694857ZM767.122286 142.006857m32.694857 0l190.646857 0q32.694857 0 32.694857-32.694857l0 0q0-32.694857-32.694857-32.694857l-190.646857 0q-32.694857 0-32.694857 32.694857l0 0q0 32.694857 32.694857 32.694857ZM0 11.410286m32.694857 0l190.646857 0q32.694857 0 32.694857-32.694857l0 0q0-32.694857-32.694857-32.694858l-190.646857 0q-32.694857 0-32.694857 32.694858l0 0q0 32.694857 32.694857 32.694857ZM767.122286 11.300571m32.694857 0l190.646857 0q32.694857 0 32.694857-32.694857l0 0q0-32.694857-32.694857-32.694857l-190.646857 0q-32.694857 0-32.694857 32.694857l0 0q0 32.694857 32.694857 32.694857ZM383.670857 11.300571m32.694857 0l190.646857 0q32.694857 0 32.694858-32.694857l0 0q0-32.694857-32.694858-32.694857l-190.646857 0q-32.694857 0-32.694857 32.694857l0 0q0 32.694857 32.694857 32.694857Z"  horiz-adv-x="1024" />

    
    <glyph glyph-name="xiancheng1" unicode="&#58995;" d="M936.447 879.991H87.55c-46.655 0-84.612-39.465-84.612-87.977v-109.135c0-48.512 37.957-87.979 84.612-87.979h848.897c46.656 0 84.614 39.467 84.614 87.98V792.014c0 48.51-37.958 87.976-84.614 87.976z m18.099-197.112c0-11.834-8.12-21.464-18.099-21.464H87.55c-9.979 0-18.097 9.629-18.097 21.464V792.015c0 11.834 8.118 21.463 18.097 21.463h848.897c9.98 0 18.099-9.629 18.099-21.463v-109.136zM936.447 173.1H87.55c-46.655 0-84.612-39.467-84.612-87.98v-109.133c0-48.51 37.957-87.978 84.612-87.978h848.897c46.656 0 84.614 39.466 84.614 87.978V85.122c0 48.51-37.958 87.978-84.614 87.978z m18.099-197.113c0-11.835-8.12-21.463-18.099-21.463H87.55c-9.979 0-18.097 9.627-18.097 21.463V85.122c0 11.835 8.118 21.464 18.097 21.464h848.897c9.98 0 18.099-9.627 18.099-21.464v-109.135zM91.513 432.568h847.255c18.368 0 33.258 14.89 33.258 33.258s-14.89 33.257-33.258 33.257H91.513c-18.368 0-33.258-14.89-33.258-33.257s14.89-33.258 33.258-33.258zM91.513 273.71h847.255c18.368 0 33.258 14.89 33.258 33.258s-14.89 33.257-33.258 33.257H91.513c-18.368 0-33.258-14.89-33.258-33.257s14.89-33.258 33.258-33.258z"  horiz-adv-x="1024" />

    
    <glyph glyph-name="xianchengchakan" unicode="&#58949;" d="M659.681442 511.536245H362.838543a44.00043 44.00043 0 0 0-44.000429 44.00043V851.99957a44.00043 44.00043 0 0 0 44.000429 44.00043h296.842899a44.00043 44.00043 0 0 0 44.00043-44.00043v-296.462895a44.00043 44.00043 0 0 0-44.00043-44.00043z m-276.842703 64.000625h256.842508V831.999375H382.838739zM403.628942-127.299993H44.245432a44.00043 44.00043 0 0 0-44.00043 44.00043V275.393939c0 24.260237 19.740193 44.00043 46.00045 44.00043h359.383509c22.260217 0 42.00041-19.740193 42.00041-44.00043v-358.703503a44.00043 44.00043 0 0 0-44.000429-43.990429zM64.245627-63.299368h319.383119V255.393744H64.245627zM831.693122 294.534126h-64.000625v89.550875a0.230002 0.230002 0 0 1-0.110001 0.160001H255.537495v-72.180704h-64.000625v73.570718a62.670612 62.670612 0 0 0 62.600612 62.600611h513.405014a64.230627 64.230627 0 0 0 64.160626-64.160626zM478.919677 537.026494h63.900624v-134.991318h-63.900624zM856.354679-5.261836m22.33065 22.330651l0 0q22.33065 22.33065 44.661301 0l91.196452-91.196453q22.33065-22.33065 0-44.6613l0 0q-22.33065-22.33065-44.661301 0l-91.196452 91.196452q-22.33065 22.33065 0 44.661301ZM767.542496-63.929374c-105.931034 0-192.111876 86.180842-192.111877 192.121876s86.200842 192.111876 192.111877 192.111876 192.141876-86.180842 192.141876-192.111876-86.140841-192.121876-192.141876-192.121876z m0 320.233127A128.121251 128.121251 0 1 1 895.683747 128.192502a128.261253 128.261253 0 0 1-128.141251 128.111251z"  horiz-adv-x="1024" />

    
    <glyph glyph-name="xianchengzhan" unicode="&#58959;" d="M973.054272-128H50.945728a50.282908 50.282908 0 0 0-50.282908 50.282908V845.717092C0.66282 873.441259 23.221561 896 53.231315 896h922.108543c25.43858 0 47.997322-22.558741 47.997322-50.282908v-923.434184a50.282908 50.282908 0 0 0-50.282908-50.282908zM73.801596-54.861224h876.396808V822.861224H73.801596zM218.970638 676.823659h292.555103v-73.138775h-292.555103zM657.700441 676.823659h145.591875v-73.138775h-145.591875zM508.54305 164.486535h292.555103v-73.138775h-292.555103zM218.856358 164.783662h145.454741v-73.138776H218.856358zM218.490665 456.778796h585.110205V310.546956h-585.110205z"  horiz-adv-x="1024" />

    
    <glyph glyph-name="xianchengxielou" unicode="&#58998;" d="M659.714436 513.728547h-294.178115a44.026657 44.026657 0 0 0-44.026657 44.026656v294.178116a44.026657 44.026657 0 0 0 44.026657 44.026657h294.178115a44.026657 44.026657 0 0 0 44.026657-44.026657v-294.178116a44.026657 44.026657 0 0 0-44.026657-44.026656z m-274.165998 64.038773h254.153882v254.153882h-254.153882zM276.23225-128H44.201763a44.026657 44.026657 0 0 0-44.026657 44.026657V148.897653a44.026657 44.026657 0 0 0 44.026657 44.026657h232.030487a44.026657 44.026657 0 0 0 44.026657-44.026657v-232.870996a44.026657 44.026657 0 0 0-44.026657-44.026657zM64.213879-63.961227h192.006254V128.885536H64.213879zM481.146319 577.347066m32.019387 0l0 0q32.019387 0 32.019387-32.019387l0-65.239501q0-32.019387-32.019387-32.019386l0 0q-32.019387 0-32.019387 32.019386l0 65.239501q0 32.019387 32.019387 32.019387ZM576.834255 383.249546m0-32.019387l0 0q0-32.019387-32.019387-32.019387l-62.657937 0q-32.019387 0-32.019387 32.019387l0 0q0 32.019387 32.019387 32.019387l62.657937 0q32.019387 0 32.019387-32.019387ZM128.292677 384.030018m32.019387 0l0 0q32.019387 0 32.019387-32.019387l0-63.878676q0-32.019387-32.019387-32.019387l0 0q-32.019387 0-32.019387 32.019387l0 63.878676q0 32.019387 32.019387 32.019387ZM767.089449 383.249546m0-32.019387l0 0q0-32.019387-32.019387-32.019387l-62.657937 0q-32.019387 0-32.019387 32.019387l0 0q0 32.019387 32.019387 32.019387l62.657937 0q32.019387 0 32.019387-32.019387ZM383.657293 384.120073m0-32.019387l0 0q0-32.019387-32.019387-32.019387l-63.868671 0q-32.019387 0-32.019386 32.019387l0 0q0 32.019387 32.019386 32.019387l63.868671 0q32.019387 0 32.019387-32.019387ZM831.76861 383.419649m32.019387 0l0 0q32.019387 0 32.019386-32.019387l0-62.657938q0-32.019387-32.019386-32.019386l0 0q-32.019387 0-32.019387 32.019386l0 62.657938q0 32.019387 32.019387 32.019387ZM979.768219-128H747.76775a44.026657 44.026657 0 0 0-44.026657 44.026657V148.897653a44.026657 44.026657 0 0 0 44.026657 44.026657H979.768219a44.026657 44.026657 0 0 0 44.026657-44.026657v-232.870996a44.026657 44.026657 0 0 0-44.026657-44.026657z m-212.01837 64.038773H959.756102V128.885536H767.779867z"  horiz-adv-x="1024" />

    
    <glyph glyph-name="shouye-xiancheng-" unicode="&#58933;" d="M377.5 429.1l298.8 173.7 29.8-49.7-298.9-173.7-29.7 49.7z m318.2-340.2l-282 165.7 5 59.8 279-171-2-54.5zM438.9 275.2L675.1 139 438.9 275.2zM239 66.3C113.6 66.3 11.9 168 11.9 293.4c0 125.4 101.7 227.1 227.1 227.1 125.4 0 227.1-101.7 227.1-227.1 1.2-124.3-98.6-225.9-222.8-227.1H239z m0 390.9c-90.5 0-163.8-73.3-163.8-163.8S148.5 129.6 239 129.6s163.8 73.3 163.8 163.8c1.6 88.9-69.1 162.2-157.9 163.8-1.9 0.1-3.9 0.1-5.9 0zM829 428.6c-100.6 0-182.2 81.6-182.2 182.2S728.4 793 829 793s182.2-81.6 182.2-182.2c-0.3-100.5-81.7-181.9-182.2-182.2z m0 304.3c-67.4 0-122-54.7-122-122 0-67.4 54.7-122 122-122 67.4 0 122 54.6 122 122-0.2 67.3-54.7 121.8-122 122zM783.4-24.6c-75.5 0-136.7 61.2-136.7 136.7s61.2 136.7 136.7 136.7c75.5 0 136.7-61.2 136.7-136.7 1.4-74.1-57.6-135.3-131.7-136.7h-5z m0 215c-43.3 0-78.3-35.1-78.3-78.3 0-43.3 35.1-78.3 78.3-78.3 43.3 0 78.3 35.1 78.3 78.3 2.5 40.8-28.5 75.8-69.3 78.3-2.9 0.2-5.9 0.2-9 0z"  horiz-adv-x="1024" />

    
    <glyph glyph-name="duoxianchengzujian" unicode="&#58927;" d="M933.11716-127.958312h-112.667397a88.203103 88.203103 0 0 0-90.799463 85.094785V810.863527A88.203103 88.203103 0 0 0 820.449763 895.958312h112.667397A88.203103 88.203103 0 0 0 1023.916624 810.863527v-853.727054A88.203103 88.203103 0 0 0 933.11716-127.958312z m22.160482 938.821839a20.514901 20.514901 0 0 1-22.160482 18.284225h-112.667397a20.514901 20.514901 0 0 1-22.160481-18.284225v-853.727054a20.514901 20.514901 0 0 1 22.160481-18.284225h112.667397a20.514901 20.514901 0 0 1 22.160482 18.284225V810.863527zM596.431433-78.627472a33.862385 33.862385 0 0 0-34.337775 33.423564v852.044905a34.337775 34.337775 0 0 0 68.638982 0v-852.044905a33.862385 33.862385 0 0 0-34.301207-33.423564z m-163.972933 0a33.862385 33.862385 0 0 0-34.337776 33.423564v852.044905a34.337775 34.337775 0 0 0 68.638983 0v-852.044905a33.862385 33.862385 0 0 0-34.301207-33.423564zM203.466861-127.958312H90.799463A88.203103 88.203103 0 0 0 0-42.863527V810.863527A88.203103 88.203103 0 0 0 90.799463 895.958312h112.667398a88.203103 88.203103 0 0 0 90.799463-85.094785v-853.727054A88.203103 88.203103 0 0 0 203.466861-127.958312zM225.627342 810.863527a20.514901 20.514901 0 0 1-22.160481 18.284225H90.799463a20.478332 20.478332 0 0 1-21.94107-18.284225v-853.727054a20.478332 20.478332 0 0 1 21.94107-18.284225h112.667398a20.514901 20.514901 0 0 1 22.160481 18.284225V810.863527z"  horiz-adv-x="1024" />

    
    <glyph glyph-name="xianchengzhuizong" unicode="&#59169;" d="M512 639c-17.6 0-32 14.4-32 32V799c0 17.6 14.4 32 32 32s32-14.4 32-32v-128c0-17.5-14.4-32-32-32zM64.2 383.8c0 17.6 14.4 32 32 32h128c17.6 0 32-14.4 32-32s-14.4-32-32-32h-128c-17.6 0-32 14.4-32 32zM955.6 447.7c-5.4 38.2-15.7 75.4-30.8 111.2-22.6 53.4-54.9 101.4-96.1 142.6-41.2 41.2-89.1 73.5-142.6 96.1C630.8 820.9 572 832.8 511.5 832.8S392.2 820.9 336.9 797.5c-53.4-22.6-101.4-54.9-142.6-96.1-41.2-41.2-73.5-89.1-96.1-142.6C74.8 503.6 63 444.8 63 384.3S74.9 265 98.3 209.7c22.6-53.4 54.9-101.4 96.1-142.6 41.2-41.2 89.1-73.5 142.6-96.1 35.4-15 72.3-25.2 110.1-30.7 0.5 21.5 0.9 43.1 0.9 64.6-78.5 13-150.9 50-208.3 107.4C167 185 127 281.6 127 384.3s40 199.3 112.6 271.9c72.6 72.6 169.2 112.6 271.9 112.6 102.7 0 199.3-40 271.9-112.6C841 598.6 878 526 890.9 447.2c13.1-0.1 56.2 0.6 64.7 0.5zM863.3 64.2h63.9c17.7 0 32.1-14.3 32.1-32.1v-63.9c0-17.7-14.3-32.1-32.1-32.1h-63.9c-17.7 0-32.1 14.3-32.1 32.1v63.9c0 17.7 14.4 32.1 32.1 32.1zM607.1 64.2H671c17.7 0 32.1-14.3 32.1-32.1v-63.9c0-17.7-14.3-32.1-32.1-32.1h-63.9c-17.7 0-32.1 14.3-32.1 32.1v63.9c0.1 17.7 14.4 32.1 32.1 32.1zM798.9 192v77.5h-64V192H623.1c-8.8 0-16-7.2-16-16v-130.6h64V112c0 8.8 7.2 16 16 16h160.1c8.8 0 16-7.2 16-16v-66.8h64V176c0 8.8-7.2 16-16 16H798.9zM734.7 383.8h63.9c17.7 0 32.1-14.3 32.1-32.1v-63.9c0-17.7-14.3-32.1-32.1-32.1h-63.9c-17.7 0-32.1 14.3-32.1 32.1v63.9c0 17.7 14.4 32.1 32.1 32.1z"  horiz-adv-x="1024" />

    
    </font>
</defs>
</svg>
