<?xml version="1.0" standalone="no"?>
<!DOCTYPE svg PUBLIC "-//W3C//DTD SVG 1.1//EN" "http://www.w3.org/Graphics/SVG/1.1/DTD/svg11.dtd" >
<!--
2013-9-30: Created.
-->
<svg>
<metadata>
Created by iconfont
</metadata>
<defs>

<font id="iconfont" horiz-adv-x="1024" >
  <font-face
    font-family="iconfont"
    font-weight="500"
    font-stretch="normal"
    units-per-em="1024"
    ascent="896"
    descent="-128"
  />
    <missing-glyph />
    
    <glyph glyph-name="x" unicode="x" horiz-adv-x="1001"
d="M281 543q-27 -1 -53 -1h-83q-18 0 -36.5 -6t-32.5 -18.5t-23 -32t-9 -45.5v-76h912v41q0 16 -0.5 30t-0.5 18q0 13 -5 29t-17 29.5t-31.5 22.5t-49.5 9h-133v-97h-438v97zM955 310v-52q0 -23 0.5 -52t0.5 -58t-10.5 -47.5t-26 -30t-33 -16t-31.5 -4.5q-14 -1 -29.5 -0.5
t-29.5 0.5h-32l-45 128h-439l-44 -128h-29h-34q-20 0 -45 1q-25 0 -41 9.5t-25.5 23t-13.5 29.5t-4 30v167h911zM163 247q-12 0 -21 -8.5t-9 -21.5t9 -21.5t21 -8.5q13 0 22 8.5t9 21.5t-9 21.5t-22 8.5zM316 123q-8 -26 -14 -48q-5 -19 -10.5 -37t-7.5 -25t-3 -15t1 -14.5
t9.5 -10.5t21.5 -4h37h67h81h80h64h36q23 0 34 12t2 38q-5 13 -9.5 30.5t-9.5 34.5q-5 19 -11 39h-368zM336 498v228q0 11 2.5 23t10 21.5t20.5 15.5t34 6h188q31 0 51.5 -14.5t20.5 -52.5v-227h-327z" />
    

    
    <glyph glyph-name="piliangchuli" unicode="&#58886;" d="M960 268 960-148 64-148 64 748l0 0 416 0L480 812 64 812C25.6 812 0 786.4 0 748l0-896c0-38.4 25.6-64 64-64l896 0c38.4 0 64 25.6 64 64L1024 268 960 268 960 268zM710.4 632.8M716.8 421.6C556.8 549.6 416 376.8 416 376.8c-70.4-89.6-147.2-64-147.2-64 128-313.6 384-166.4 384-166.4 0-44.8-89.6-64-89.6-64s128-83.2 211.2 64C864 287.2 716.8 421.6 716.8 421.6L716.8 421.6zM755.2 517.6c-70.4 57.6-102.4-19.2-102.4-19.2 102.4-32 140.8-121.6 140.8-121.6C812.8 408.8 825.6 460 755.2 517.6L755.2 517.6zM947.2 799.2 787.2 556c0 0-19.2-38.4 32-38.4l160 243.2C979.2 760.8 998.4 805.6 947.2 799.2L947.2 799.2zM902.4 146.4c44.8-83.2-44.8-128-44.8-128 19.2-38.4-32-83.2-32-83.2-64-70.4-108.8 0-108.8 0-128-102.4-166.4 70.4-166.4 70.4s64-153.6 166.4-44.8c0 0 51.2-64 96-6.4 0 0 51.2 44.8 25.6 76.8C838.4 31.2 921.6 50.4 902.4 146.4L902.4 146.4zM480-39.2c-19.2-76.8-89.6-38.4-89.6-38.4-6.4-38.4-64-19.2-64-19.2-70.4 6.4-57.6 83.2-57.6 83.2-121.6 38.4-57.6 166.4-57.6 166.4s-44.8-128 64-147.2c0 0-6.4-70.4 51.2-76.8 0 0 51.2-12.8 57.6 25.6C390.4-52 441.6-109.6 480-39.2L480-39.2zM185.6 165.6C38.4 223.2 121.6 338.4 121.6 338.4 44.8 408.8 121.6 485.6 121.6 485.6 192 562.4 268.8 472.8 268.8 472.8c70.4 198.4 217.6-12.8 217.6-12.8S352 632.8 275.2 453.6c0 0-108.8 89.6-147.2 12.8 0 0-57.6-76.8 12.8-128C140.8 344.8 57.6 223.2 185.6 165.6L185.6 165.6zM185.6 165.6"  horiz-adv-x="1024" />

    
    <glyph glyph-name="msnui-upload" unicode="&#59002;" d="M323.58 521.383q-25.127 0-32.107 13.494t9.771 34.899q17.682 22.335 40.948 53.977t48.393 65.61 48.859 66.075 42.344 55.372q16.751 21.404 32.107 22.335t33.037-19.544q17.682-21.404 40.482-51.65t46.996-63.282 47.927-64.68 42.344-54.907q20.474-25.127 15.821-41.878t-30.711-15.821q-15.821 0-40.948-0.931t-41.878-0.931q-18.613-0.931-22.8-11.633t-4.188-29.314v-45.601q0-25.127 0.465-51.185t0.465-51.185v-46.532q0-9.306-1.396-19.544t-6.514-18.613-14.89-13.959-26.523-5.584q-19.544 0-35.829-0.465t-38.622-0.465q-30.711 0-41.413 14.424t-10.702 46.067v36.294q0 21.404-0.465 45.601t-0.465 48.393v43.74q0 27.919-5.584 44.205t-25.127 15.354q-13.959 0-33.968 0.931t-35.829 0.931zM948.034 45.83q5.584-22.335-2.326-42.809t-24.662-35.829-40.948-24.197-52.115-8.841h-630.969q-33.503 0-59.095 12.099t-40.948 29.78-20.474 38.622 1.396 37.691q5.584 13.029 11.168 26.988 4.654 12.099 11.168 27.455t13.959 31.177l35.364 85.618h106.093l-40.017-117.26h599.327l-40.017 117.26h101.439q19.544-47.462 35.364-85.618 6.514-16.751 13.029-32.572t11.633-28.384 8.376-21.404 3.257-9.771z"  horiz-adv-x="1024" />

    
    <glyph glyph-name="gongju" unicode="&#59012;" d="M418.927 231.182 286.206 98.411l-23.585 23.634 132.771 132.722-37.14 37.14L187.794 121.45l-0.049 0 0 0 0 0 0-0.051-68.868-211.916 211.917 68.818 0 0 0.05 0 0.049 0.05L330.893-21.6 501.3 148.809 418.927 231.182zM556.017 415.441l61.47 61.471 23.586-23.586-61.52-61.42 82.422-82.373 98.164 98.212-143.049 143-98.163-98.213L556.017 415.441zM759.84 693.496l-94.141-94.191 143.049-143.048 94.24 94.141L759.84 693.496zM727.566 249.752c-16.98 0-35.105-5.562-53.029-14.747L446.782 462.711c9.136 17.925 14.598 35.898 14.598 52.434 0 90.565-86.098 178.252-176.614 178.252-0.596 0-1.092 0-1.688 0-0.348 0-10.625-10.428-16.236-16.038 73.039-73.039 67.031-61.172 67.031-105.958 0-36.346-58.243-93.744-93.744-93.744-7.796 0-13.853-0.198-18.868-0.198-24.727 0-25.075 5.214-87.041 67.229-5.858-5.81-16.137-15.988-16.137-16.286 1.092-91.112 87.189-178.253 178.302-178.253 16.485 0 34.161 5.214 51.54 14.003l228.55-228.501c-8.738-17.379-13.853-34.856-13.853-50.845 0-90.566 86.098-178.302 176.613-178.302 0.498 0 1.043 0 1.639 0 0.396 0 10.676 10.477 16.188 16.088-72.939 73.038-66.932 61.122-66.932 105.958 0 36.296 58.191 93.744 93.693 93.744 7.746 0 13.854 0.198 18.918 0.198 24.727 0 25.125-5.214 87.09-67.229 5.809 5.76 15.988 15.89 16.088 16.236C904.727 162.562 818.729 249.752 727.566 249.752L727.566 249.752z"  horiz-adv-x="1024" />

    
    <glyph glyph-name="shanchu" unicode="&#58909;" d="M212.992 369.664 212.992 369.664 212.992 369.664 215.04 369.664 212.992 369.664ZM233.472 549.888 233.472 549.888l542.72 0 0 0 49.152 0 0 90.112L182.272 640l0-90.112L233.472 549.888 233.472 549.888 233.472 549.888zM348.16 822.272 348.16 822.272 348.16 822.272l311.296 0c18.432 0 34.816-14.336 34.816-32.768l0 0 0-79.872 165.888 0c18.432 0 34.816-14.336 34.816-32.768l0 0 0-157.696c0-18.432-14.336-32.768-34.816-32.768l0 0-49.152 0 0-499.712c0-18.432-14.336-32.768-34.816-32.768l0 0L233.472-46.08c-18.432 0-32.768 14.336-32.768 32.768l0 0L200.704 482.304 149.504 482.304c-18.432 0-32.768 14.336-32.768 32.768l0 0 0 157.696c0 18.432 14.336 32.768 32.768 32.768l0 0 163.84 0 0 81.92C315.392 807.936 329.728 822.272 348.16 822.272L348.16 822.272zM626.688 756.736 626.688 756.736 382.976 756.736l0-43.008 243.712 0L626.688 756.736 626.688 756.736zM385.024 482.304 385.024 482.304l0-389.12c0-10.24-10.24-20.48-20.48-20.48-10.24 0-20.48 8.192-20.48 20.48l0 389.12L266.24 482.304l0-464.896 475.136 0L741.376 482.304l-77.824 0 0-389.12c0-10.24-8.192-20.48-20.48-20.48-10.24 0-20.48 8.192-20.48 20.48l0 389.12-100.352 0 0-389.12c0-10.24-8.192-20.48-20.48-20.48-12.288 0-20.48 8.192-20.48 20.48l0 389.12L385.024 482.304 385.024 482.304z"  horiz-adv-x="1024" />

    
    <glyph glyph-name="ziliucheng" unicode="&#58954;" d="M212.992 369.664 212.992 369.664 212.992 369.664 215.04 369.664 212.992 369.664ZM813.056 128l96.256 0c20.48 0 38.912-16.384 38.912-38.912l0-96.256c0-20.48-16.384-38.912-38.912-38.912l-96.256 0c-20.48 0-38.912 16.384-38.912 38.912l0 38.912-18.432 0c-53.248 0-96.256 43.008-96.256 96.256L659.456 281.6l-96.256 0 0-192.512c0-20.48-16.384-38.912-38.912-38.912L120.832 50.176c-20.48 0-38.912 16.384-38.912 38.912L81.92 494.592c0 20.48 16.384 38.912 38.912 38.912l192.512 0L313.344 705.536 120.832 705.536C98.304 705.536 81.92 721.92 81.92 744.448L81.92 783.36c0 20.48 16.384 38.912 38.912 38.912l788.48 0c20.48 0 38.912-16.384 38.912-38.912l0-38.912c0-20.48-16.384-38.912-38.912-38.912L331.776 705.536l0-174.08 192.512 0c20.48 0 38.912-16.384 38.912-38.912L563.2 302.08l96.256 0 0 153.6c0 53.248 43.008 96.256 96.256 96.256l18.432 0 0 38.912c0 20.48 16.384 38.912 38.912 38.912l96.256 0c20.48 0 38.912-16.384 38.912-38.912l0-96.256c0-20.48-16.384-38.912-38.912-38.912l-96.256 0c-20.48 0-38.912 16.384-38.912 38.912l0 38.912-18.432 0c-43.008 0-77.824-34.816-77.824-77.824L677.888 302.08l96.256 0 0 38.912c0 20.48 16.384 38.912 38.912 38.912l96.256 0c20.48 0 38.912-16.384 38.912-38.912l0-96.256c0-20.48-16.384-38.912-38.912-38.912l-96.256 0c-20.48 0-38.912 16.384-38.912 38.912L774.144 281.6l-96.256 0 0-153.6c0-43.008 34.816-77.824 77.824-77.824l18.432 0 0 38.912C774.144 111.616 792.576 128 813.056 128z"  horiz-adv-x="1024" />

    
    <glyph glyph-name="a881" unicode="&#59014;" d="M637.87 419.068c0 5.368-4.384 9.752-9.741 9.752-2.052 0-3.938-0.663-5.482-1.668l-60.727-49.162-34.239 223.177c0 8.187-6.643 14.84-14.829 14.84-8.259 0-14.912-6.653-14.912-14.84l-52.675-343.542-73.556 59.504c-2.031 1.389-4.487 2.238-7.13 2.238-6.964 0-12.632-5.648-12.632-12.653 0-2.197 0.611-4.29 1.648-6.062l-0.052-0.031 0.383-0.591c0.135-0.218 0.238-0.425 0.394-0.601l78.966-119.941-41.483-270.245c-0.249-1.15-0.404-2.259-0.508-3.451h-0.010c-0.093-0.933-0.145-1.845-0.145-2.746 0-16.166 13.12-29.265 29.265-29.265l186.378 0.104c15.441 0.808 27.731 13.524 27.731 29.161 0 0.902-0.062 1.814-0.176 2.715v0.073c-0.083 1.15-0.269 2.259-0.497 3.409l-62.178 405.451 64.416 98.769c0.083 0.135 0.187 0.269 0.269 0.415l0.321 0.487h-0.041c0.767 1.43 1.244 3.036 1.244 4.705M933.763 622.276c-64.945 135.941-193.622 235.674-347.387 260.38h-0.021c-2.871 0.591-5.897 0.943-8.954 0.943-24.229 0-43.856-19.648-43.856-43.897 0-20.488 14.073-37.659 33.099-42.436l-0.041-0.166c50.043-7.285 96.821-24.353 138.563-49.12-1.44 0.031-2.881 0.166-4.363 0.135-43.576-0.87-78.209-36.861-77.359-80.437 0.85-43.556 36.871-78.251 80.437-77.349 43.576 0.839 78.23 36.861 77.359 80.406-0.135 7.42-1.389 14.601-3.441 21.327 30.933-30.343 56.81-65.815 75.95-105.288 6.591-17.586 24.115-29.607 43.866-28.384 24.135 1.523 42.509 22.363 40.954 46.54-0.383 6.27-2.104 12.125-4.808 17.348M975.464 480.376v0c-2.073 23.628-22.633 41.4-46.405 39.856-24.156-1.492-42.519-22.322-40.965-46.509 0.135-2.187 0.497-4.352 0.933-6.446 1.845-15.223 2.881-30.757 2.881-46.509 0-40.892-6.518-80.292-18.488-117.195-7.99 37.659-42.53 64.8-82.095 62.292-43.493-2.777-76.51-40.27-73.753-83.774 2.767-43.524 40.291-76.479 83.774-73.722 11.368 0.725 22.001 3.865 31.493 8.809-29.192-45.918-67.981-85.184-113.505-114.967-14.301-7.202-24.146-21.969-24.146-39.12 0-24.218 19.627-43.825 43.846-43.825 10.622 0 20.384 3.762 27.97 10.104 127.755 83.443 212.202 227.705 212.202 391.678 0 20.073-1.275 39.928-3.741 59.328M489.7 839.701c0 24.249-19.638 43.897-43.846 43.897-3.088 0-6.083-0.352-8.985-0.943h-0.021c-153.745-24.705-282.453-124.438-347.346-260.38-2.725-5.223-4.435-11.078-4.85-17.348-1.513-24.177 16.809-45.017 40.986-46.54 19.741-1.223 37.276 10.798 43.846 28.384 19.161 39.473 45.006 74.945 75.95 105.288-2.062-6.726-3.275-13.835-3.451-21.286-0.839-43.587 33.794-79.608 77.359-80.448 43.597-0.902 79.608 33.794 80.437 77.349 0.86 43.576-33.763 79.567-77.318 80.437-1.482 0.031-2.943-0.104-4.394-0.135 41.742 24.767 88.531 41.835 138.563 49.12l-0.010 0.166c18.975 4.777 33.079 21.949 33.079 42.436M303.913 102.211c-45.576 29.783-84.334 69.048-113.526 114.967 9.492-4.943 20.115-8.083 31.514-8.809 43.493-2.757 80.997 30.198 83.753 73.722 2.788 43.504-30.218 80.997-73.722 83.774-39.597 2.508-74.106-24.633-82.116-62.292-11.948 36.902-18.488 76.302-18.488 117.195 0 15.752 1.026 31.286 2.881 46.509 0.456 2.093 0.808 4.259 0.943 6.446 1.534 24.187-16.809 45.017-40.965 46.509-23.804 1.544-44.322-16.228-46.426-39.856-2.435-19.399-3.731-39.255-3.731-59.328 0-163.973 84.448-308.236 212.182-391.678 7.596-6.342 17.358-10.104 27.98-10.104 24.229 0 43.846 19.607 43.846 43.825 0 17.151-9.824 31.918-24.125 39.12z"  horiz-adv-x="1024" />

    
    <glyph glyph-name="shanchudelete31" unicode="&#59147;" d="M831.15008 110.92992l30.72 0 0-76.8-76.8 0 0 30.72 46.08 0L831.15008 110.92992zM348.16 34.12992l109.24032 0 0 30.72L348.16 64.84992 348.16 34.12992zM566.62016 34.12992 675.84 34.12992l0 30.72L566.62016 64.84992 566.62016 34.12992zM192.86016 110.92992l-30.72 0 0-76.8 76.8 0 0 30.72-46.08 0L192.86016 110.92992zM192.86016 329.39008l-30.72 0L162.14016 220.16l30.72 0L192.86016 329.39008zM192.86016 547.84l-30.72 0 0-109.23008 30.72 0L192.86016 547.84zM162.14016 657.07008l30.72 0 0 46.08 46.08 0 0 30.72-76.8 0L162.14016 657.07008zM457.39008 733.87008 348.16 733.87008l0-30.72 109.23008 0L457.39008 733.87008zM675.84 733.87008 566.62016 733.87008l0-30.72L675.84 703.15008 675.84 733.87008zM785.07008 733.87008l0-30.72 46.08 0 0-46.08 30.72 0 0 76.8L785.07008 733.87008zM831.15008 220.16l30.72 0L861.87008 329.39008l-30.72 0L831.15008 220.16zM831.15008 438.60992l30.72 0L861.87008 547.84l-30.72 0L831.15008 438.60992zM712.74496 576.21504c-19.4048 19.39456-50.8416 19.39456-70.2464 0L512 445.72672 381.51168 576.21504c-19.41504 19.39456-50.85184 19.39456-70.2464 0-19.41504-19.4048-19.41504-50.86208 0-70.26688l130.46784-130.47808L311.25504 244.992c-19.41504-19.41504-19.41504-50.86208 0-70.26688 9.69728-9.69728 22.40512-14.55104 35.1232-14.55104 12.71808 0 25.42592 4.85376 35.13344 14.55104L512 305.21344l130.48832-130.48832c9.69728-9.69728 22.40512-14.55104 35.13344-14.55104 12.70784 0 25.41568 4.85376 35.1232 14.55104 19.41504 19.4048 19.41504 50.86208 0 70.26688L582.26688 375.47008l130.46784 130.47808C732.14976 525.3632 732.14976 556.81024 712.74496 576.21504z"  horiz-adv-x="1024" />

    
    <glyph glyph-name="gongju1" unicode="&#58942;" d="M512 896C226.742857 896 0 669.257143 0 384s226.742857-512 512-512c285.257143 0 512 226.742857 512 512S797.257143 896 512 896zM782.628571 120.685714c-14.628571-21.942857-73.142857-14.628571-73.142857-14.628571L402.285714 384c0 0-153.6-87.771429-219.428571 124.342857 0 0-7.314286 21.942857 14.628571 21.942857 0 0 58.514286-80.457143 117.028571-51.2 0 0 58.514286 29.257143 65.828571 102.4 0 0 7.314286 21.942857-65.828571 80.457143 0 0-7.314286 29.257143 29.257143 21.942857 0 0 190.171429-43.885714 138.971429-197.485714l307.2-277.942857C789.942857 193.828571 804.571429 142.628571 782.628571 120.685714z"  horiz-adv-x="1024" />

    
    <glyph glyph-name="gongju2" unicode="&#58923;" d="M2.198036 749.322359l-1.108241 16.882506-1.089821-17.302061 0.491187-7.79043 0-18.251689 0.024559-0.599657c0.010233-0.249687 0.25378-6.132674 0.581238-6.39464 0.007163-0.00614 0.013303-0.008186 0.020466-0.008186 0.321318 0 0.528026 6.009877 0.537236 6.271844l0.020466 0.592494 0 18.215874L2.198036 749.322359 2.198036 749.322359zM1.090819 761.771903l0.822738-12.538571-0.823761-13.1853-0.809435 12.856819L1.090819 761.771903 1.090819 761.771903zM1.54926 724.53686c-0.055259-1.357927-0.223081-4.848425-0.450255-4.680603-0.231267 0.185218-0.419556 3.669576-0.484024 5.033643L0.614981 739.134323l0.474814-7.544837 0.459464 7.354502L1.54926 724.53686 1.54926 724.53686zM1.54926 724.53686M410.635356 245.848547c-32.529881 0-58.892295-25.970488-58.892295-57.96518 0-32.080649 26.323529-57.95904 58.892295-57.95904 32.533974 0 58.82271 25.87839 58.82271 57.95904C469.458066 219.821777 443.168306 245.848547 410.635356 245.848547L410.635356 245.848547zM410.635356 245.848547M608.402581 835.52465c-247.111051 0-447.432449-200.321398-447.432449-447.433472 0-247.111051 200.321398-447.428356 447.432449-447.428356 247.113097 0 447.428356 200.316282 447.428356 447.428356C1055.830937 635.203252 855.515679 835.52465 608.402581 835.52465L608.402581 835.52465zM869.367151 324.930673l-10.55438-10.385535c-59.880809-59.193147-149.796678-63.774489-215.139895-17.597797-34.450626-37.322024-176.380126-194.745403-176.380126-194.745403-23.769356-23.543206-94.070492-49.02967-143.720286-0.038886-49.643654 48.995901-23.861454 118.442576 0 141.950989l198.605314 173.192527c-45.170782 64.558341-39.952944 152.461367 19.222807 211.166397l10.646478 10.349719c51.208289 50.576909 156.991544 51.752688 209.05941 51.582819 16.125259-0.091074 4.995781-12.414751 4.995781-12.414751s-86.835717-85.555561-98.487082-97.093339c-11.70867-11.57871-9.434883-34.860972-9.434883-34.860972s8.054443-83.70747 19.666922-95.247294c11.747555-11.486612 92.955088-20.546965 92.955088-20.546965s30.704302-0.932232 39.764656 8.054443c9.078773 9.025561 98.004081 97.315396 98.004081 97.315396s12.418844 10.737552 12.287861-5.945409C920.631722 477.335758 919.010805 374.000252 869.367151 324.930673L869.367151 324.930673zM869.367151 324.930673"  horiz-adv-x="1122" />

    
    <glyph glyph-name="xiazai44" unicode="&#58905;" d="M805.695-77.009c-1.963 0-3.541 0.054-4.672 0.111L203.268-76.898c-40.042 0-63.091 16.865-75.375 31.013-26.919 31.003-24.757 73.037-23.543 84.7l0 359.53 64 0 0-363.913-0.302-1.883c-0.761-6.401-0.833-26.277 8.289-36.609 1.93-2.186 7.803-8.838 26.932-8.838l600.308 0 0.75-0.082c2.153-0.076 22.315-0.434 34.996 11.557 8.454 7.994 12.74 21.212 12.74 39.288L852.063 398.621l64 0 0-360.756c0-45.871-18.247-72.371-33.555-86.525C854.974-74.12 820.092-77.008 805.695-77.009zM136.349 368.312 38 368.312c-13.291 0-25.197 8.214-29.916 20.639-4.718 12.425-1.266 26.472 8.674 35.294l472.219 419.09c12.02 10.668 30.087 10.766 42.223 0.227l478.781-415.791c9.955-8.646 13.588-22.513 9.151-34.929s-16.035-20.84-29.216-21.219l-104.938-3.012c-0.313-0.01-0.624-0.014-0.936-0.014-17.247 0-31.471 13.729-31.97 31.082-0.507 17.666 13.403 32.398 31.069 32.905l22.931 0.658L510.448 776.821 122.266 432.312l14.083 0c17.673 0 32-14.327 32-32S154.022 368.312 136.349 368.312zM403-45.201c-14.912 0-27 12.088-27 27L376 207.645c0.002 4.866 1.234 24.9 20.021 43.995 22.8 23.173 61.458 34.923 114.901 34.923 52.638 0 90.876-11.911 113.652-35.403 19.225-19.828 20.464-40.706 20.426-46.244l0-222.25c0-14.912-12.088-27-27-27s-27 12.088-27 27L591 204.598c-0.179 1.167-1.308 6.104-8.017 11.541-7.569 6.134-26.997 16.424-72.062 16.424-52.272 0-70.848-13.145-76.408-18.795-2.73-2.775-3.876-5.136-4.357-6.627-0.073-0.225-0.123-0.411-0.157-0.549l0-224.793C430-33.113 417.912-45.201 403-45.201zM410 170 401-36 163-23 146 231 151 397 80 420 509 809 932 440 889 399 871 29 854-28 630-36 626 113 612 213 584 236 529 245 461 239 419 233Z"  horiz-adv-x="1024" />

    
    <glyph glyph-name="close" unicode="&#58902;" d="M940.8 812.8c25.6-25.6 25.6-64 0-83.2L595.2 384l345.6-345.6c25.6-25.6 25.6-64 0-83.2-25.6-25.6-64-25.6-83.2 0L512 300.8l-345.6-345.6c-25.6-25.6-64-25.6-83.2 0-25.6 25.6-25.6 64 0 83.2L428.8 384 83.2 729.6c-25.6 25.6-25.6 64 0 83.2s64 25.6 83.2 0L512 467.2l345.6 345.6C876.8 838.4 921.6 838.4 940.8 812.8z"  horiz-adv-x="1024" />

    
    <glyph glyph-name="guanjianzi" unicode="&#58911;" d="M943.540603 879.481816 69.165093 879.481816c-35.582063 0-64.530353-28.94829-64.530353-64.530353l0-874.374498c0-35.583074 28.94829-64.531364 64.530353-64.531364l874.37551 0c35.583074 0 64.530353 28.94829 64.530353 64.531364L1008.070956 814.951463C1008.070956 850.533525 979.122666 879.481816 943.540603 879.481816zM947.588226-59.423036c0-2.23216-1.816474-4.048634-4.047623-4.048634L69.165093-63.47167c-2.23216 0-4.047623 1.816474-4.047623 4.048634L65.117471 814.951463c0 2.23216 1.815463 4.047623 4.047623 4.047623l874.37551 0c2.23216 0 4.047623-1.815463 4.047623-4.047623L947.588226-59.423036zM190.379358 599.708353 190.379358 506.659555 190.379358 441.929957 255.108957 441.929957 255.108957 506.659555 441.206553 506.659555 441.206553 128.395963 379.174358 128.395963 379.174358 63.666364 441.206553 63.666364 568.64295 63.666364 633.372549 63.666364 633.372549 128.395963 568.64295 128.395963 568.64295 506.659555 756.763346 506.659555 756.763346 441.929957 821.492945 441.929957 821.492945 506.659555 821.492945 607.799553 821.492945 692.757151 190.379358 692.757151Z"  horiz-adv-x="1024" />

    
    <glyph glyph-name="shanchu1" unicode="&#58936;" d="M169.671331 667.566334c0 23.3805 19.069311 42.339294 42.615587 42.339294l213.026768 0 0 42.285059c0 23.381523 19.069311 42.285059 42.615587 42.285059l85.23322 0c23.546276 0 42.615587-18.959817 42.615587-42.339294l0-42.339294L808.804846 709.797158c23.491017 0 42.615587-18.959817 42.615587-42.340317l0-42.339294L169.671331 625.117546 169.671331 667.566334 169.671331 667.566334zM808.804846 540.656923l0-84.625376 0-437.216783c0-23.3805-19.125593-42.340317-42.617633-42.340317l-511.284709 0c-23.546276 0-42.615587 18.958794-42.615587 42.340317L212.286917 456.031547l0 84.625376L212.286917 582.885699 808.804846 582.885699 808.804846 540.656923 808.804846 540.656923zM382.697075 455.977311c0 23.381523-19.12457 42.339294-42.615587 42.339294-23.491017 0-42.561351-18.958794-42.561351-42.339294l0-352.648712c0-23.325241 19.069311-42.285059 42.615587-42.285059 23.546276 0 42.615587 18.959817 42.615587 42.285059L382.751311 455.977311 382.697075 455.977311 382.697075 455.977311zM553.162492 455.977311c0 23.381523-19.125593 42.339294-42.617633 42.339294-23.546276 0-42.615587-18.958794-42.615587-42.339294l0-352.648712c0-23.325241 19.12457-42.285059 42.615587-42.285059s42.617633 18.959817 42.617633 42.285059L553.162492 455.977311 553.162492 455.977311zM723.571626 455.977311c0 23.381523-19.069311 42.339294-42.615587 42.339294s-42.615587-18.958794-42.615587-42.339294l0-352.648712c0-23.325241 19.12457-42.285059 42.615587-42.285059 23.491017 0 42.615587 18.959817 42.615587 42.285059L723.571626 455.977311 723.571626 455.977311z"  horiz-adv-x="1024" />

    
    <glyph glyph-name="jiufuqianbaoicon08" unicode="&#59029;" d="M875.432137 747.432137c-198.090484 198.090484-523.981279 198.090484-722.071763 0s-198.090484-523.981279 0-722.071763 523.981279-198.090484 722.071763 0S1073.522621 542.951638 875.432137 747.432137zM670.951638 178.720749 511.201248 338.471139l-159.75039-159.75039c-12.780031-12.780031-31.950078-12.780031-44.730109 0-12.780031 12.780031-12.780031 31.950078 0 44.730109L466.471139 383.201248 306.720749 542.951638C293.940718 555.731669 293.940718 574.901716 306.720749 587.681747c12.780031 12.780031 31.950078 12.780031 44.730109 0L511.201248 427.931357l159.75039 159.75039c12.780031 12.780031 31.950078 12.780031 44.730109 0 12.780031-12.780031 12.780031-31.950078 0-44.730109L555.931357 383.201248l159.75039-159.75039c12.780031-12.780031 12.780031-31.950078 0-44.730109S683.731669 165.940718 670.951638 178.720749z"  horiz-adv-x="1024" />

    
    <glyph glyph-name="wode2" unicode="&#58912;" d="M508.96896 803.7376c-117.248 0-212.64384-96.80896-212.64384-215.7568 0-118.94784 95.39584-215.7568 212.64384-215.7568 117.248 0 212.64384 96.78848 212.64384 215.7568C721.6128 706.9696 626.21696 803.7376 508.96896 803.7376L508.96896 803.7376M596.5824 351.4368l-159.3344 0c-148.04992 0-268.47232-122.12224-268.47232-272.24064l0-16.15872c0-78.49984 118.49728-78.49984 268.47232-78.49984l159.3344 0c144.09728 0 268.51328 0 268.51328 78.49984l0 16.15872C865.09568 229.29408 744.6528 351.4368 596.5824 351.4368L596.5824 351.4368"  horiz-adv-x="1024" />

    
    <glyph glyph-name="shanchu2" unicode="&#59052;" d="M780.8 185.6 582.4 390.4l198.4 198.4c19.2 19.2 19.2 51.2 0 70.4-19.2 19.2-51.2 19.2-70.4 0L518.4 454.4 313.6 652.8c-19.2 19.2-51.2 19.2-76.8 0-19.2-19.2-19.2-51.2 0-76.8l198.4-198.4-198.4-198.4c-19.2-19.2-19.2-51.2 0-70.4 19.2-19.2 51.2-19.2 70.4 0l198.4 198.4 198.4-198.4c19.2-19.2 51.2-19.2 76.8 0C806.4 134.4 806.4 166.4 780.8 185.6z"  horiz-adv-x="1024" />

    
    <glyph glyph-name="iconshijianzhou" unicode="&#58984;" d="M543.730679 507.564223l-63.461357 0 0-123.564223 0-61.780065 63.461357 0 63.461357 0 0 61.780065-63.461357 0L543.730679 507.564223zM543.730679 664.378735 543.730679 816.474782l-63.461357 0 0-152.096047c-146.035004-15.303544-259.72023-134.986367-259.72023-280.378735 0-145.394415 113.685225-265.075191 259.72023-280.378735l0-152.096047 63.461357 0L543.730679 103.621265c146.035004 15.303544 259.72023 134.985344 259.72023 280.378735C803.449885 529.392368 689.765683 649.075191 543.730679 664.378735zM512 158.360983c-129.810484 0-235.041154 101.022835-235.041154 225.639017s105.23067 225.639017 235.041154 225.639017c129.808438 0 235.041154-101.021811 235.041154-225.639017S641.808438 158.360983 512 158.360983z"  horiz-adv-x="1024" />

    
    <glyph glyph-name="qianyue" unicode="&#58941;" d="M320.356238 352.334813c-50.458205-43.256176-106.016569-77.462233-164.451446-108.980064 1.941212-1.211595 2.918469-1.914606 3.973498-2.468215 91.496877-47.970548 183.570899-94.755084 278.805914-135.003763 19.0908-8.068769 38.261419-15.95232 57.483202-23.703865 36.354999-14.660908 71.90875-11.508102 107.201557 4.348028 63.738673 28.636201 116.323309 71.777767 162.557306 123.406634 62.562894 69.862137 111.854531 147.81965 144.186913 236.116649 13.84124 37.799908 24.908296 76.371388 30.214139 116.371404 1.824555 13.753235 2.62785 27.65178 3.631714 41.502229 0.876973 12.092409-1.566682 15.3455-13.314237 18.644639-47.384194 13.308097-94.771457 26.602891-142.165884 39.874149-81.604576 22.851451-163.214269 45.680389-244.821915 68.520583-13.426801 3.75758-14.846126 3.02387-15.826454-10.662851-2.90005-40.470737-10.207479-80.013335-24.108071-118.223588-1.707898-4.692882-3.217275-9.508561-5.446036-13.951757-4.424776-8.819876-3.499707-16.579607 1.819438-24.992207 17.260106-27.298739 31.283494-56.289004 42.929742-86.404905 12.634762-32.67519 22.693862-66.134233 29.92352-100.426247 0.414439-1.967818 0.535189-3.998057 0.792039-5.998621-0.508583-0.410346-1.017166-0.821715-1.526773-1.232061-0.967024 1.529843-1.733481 3.241834-2.930749 4.561899-50.352805 55.535851-103.051027 108.687398-160.780847 156.63441-48.4075 40.204677-98.630345 77.81425-155.719574 105.165178-9.989515 4.786003-20.405749 8.686846-30.676673 12.868075-1.805112 0.734734-3.871167 0.828878-5.816472 1.218758-0.430812-0.478907-0.861624-0.958838-1.291412-1.437745 1.533936-1.723248 2.817162-3.791349 4.63967-5.117554 26.061562-18.957771 52.709479-37.150108 78.202083-56.840566 46.421262-35.855626 89.750093-75.403341 130.508379-117.470435 69.255317-71.478961 137.245827-144.18282 205.726501-216.411865 2.27788-2.402723 4.367471-5.074575 6.083555-7.900947 4.424776-7.287987 3.270487-15.08865-2.841721-21.269419-5.349845-5.41022-13.395078-6.399757-20.402679-2.114151-2.802836 1.714038-5.371334 3.971451-7.644097 6.362918-12.255115 12.899798-24.628934 25.700335-36.473703 38.972617-8.68173 9.727549-18.804275 17.051351-30.518061 22.668279-68.278059 32.741705-136.284943 66.024739-202.258517 103.282295-59.402925 33.546024-117.396757 69.330018-172.257226 109.954251-15.873526 11.754718-30.726815 24.886807-46.047756 37.387515 0.220011 0.607844 0.438998 1.215688 0.659009 1.823532 2.381234 0.370437 4.76042 1.034563 7.145747 1.062192 12.762675 0.151449 25.527396 0.076748 38.289048 0.272199 1.740644 0.026606 3.463891 1.128707 5.196349 1.733481-1.073448 1.429559-1.837858 3.427052-3.26537 4.202719-23.054065 12.514012-47.343261 22.137183-72.883961 27.878954-13.038968 2.930749-22.621207 8.990768-30.857798 19.437701-19.277042 24.453948-36.879955 49.719378-45.606711 80.056314-7.883551 27.406187-8.077979 54.798047 1.300622 81.978083 0.782829 2.26867 1.713015 4.492314 2.680039 6.690376 1.974981 4.489244 5.39794 5.948479 9.965979 4.304026 2.777253-0.99977 5.53097-2.160199 8.125051-3.562129 22.473851-12.144598 44.909839-24.361851 67.359131-36.552497 1.102101-0.598634 2.231831-1.146103 3.348258-1.717108 0.547469 0.248663 1.094938 0.497327 1.642406 0.74599-0.973164 2.830465-1.393743 6.033413-3.007497 8.432043C98.42159 756.259352 83.34215 774.745379 65.986877 791.356708c-8.258081 7.90504-7.526417 9.914814 3.540639 13.458523 21.620413 6.92369 43.673685 7.405667 65.983807 4.883217 25.495674-2.882654 50.175773-9.274224 74.562183-17.016559 15.492856-4.91801 27.28339-14.716166 36.440957-27.78481 22.322401-31.856545 44.601824-63.751976 62.298881-98.538247 0.475837-0.936325 1.054005-1.820462 2.448772-4.209882 1.487887 31.81152-5.939269 60.789505-12.308327 90.450035 1.249457-0.493234 1.945305-0.64059 2.499937-1.004887 30.013571-19.732413 61.146639-37.799908 89.011266-60.715827 19.962657-16.417925 36.975123-35.246759 49.712215-57.8168 0.449231-0.795109 0.969071-1.550309 2.291183-3.65218 2.865257 9.145287 5.640464 17.172101 7.896854 25.343201 10.154267 36.770462 12.947893 74.312496 11.752672 112.300692-0.213871 6.78145 0.209778 13.755282 1.581008 20.383236 4.15667 20.086477 20.901029 26.900673 37.33328 23.168676 22.526039-5.117554 44.711318-11.775184 66.969251-18.031679 136.798643-38.452777 273.577842-76.977185 410.362158-115.481128 1.423419-0.401136 2.844791-0.814552 4.253884-1.264806 18.182105-5.816472 24.692379-14.015202 25.898857-32.92897 2.311649-36.220946 0.264013-72.204485-6.080485-107.942431-12.237719-68.943209-36.878932-133.636626-67.784826-196.090027-44.417629-89.75828-103.722316-168.18242-179.612751-233.806024-44.24162-38.256302-92.442412-70.070892-148.637272-87.855954-19.318998-6.114255-39.402405-10.317996-59.44181-13.416568-9.069563-1.401929-19.192108 0.920976-28.312836 3.447519-48.626487 13.468756-95.217618 32.482809-141.211139 53.04717-100.457969 44.915979-198.241017 95.157243-294.729581 147.975193-6.486738 3.550873-12.995989 7.166213-19.041682 11.398608-19.133779 13.395078-17.692964 42.760896 2.817162 53.948703 10.70276 5.837962 22.033829 10.520611 33.060977 15.766079 51.701522 24.590048 100.087533 54.625108 145.907091 88.87619 2.223644 1.662873 4.505617 3.258207 6.841825 4.758374 4.387937 2.818185 8.954953 3.362584 13.627369 0.675382C283.869233 373.355569 301.809837 363.016083 320.356238 352.334813z"  horiz-adv-x="1024" />

    
    <glyph glyph-name="jianhao" unicode="&#58892;" d="M893.54752 896 130.44736 896C58.40384 896 0 837.59616 0 765.55264l0-763.10016C0-69.59616 58.40384-128 130.44736-128l763.10016 0C965.59616-128 1024-69.59616 1024 2.45248L1024 765.55264C1024 837.59616 965.59616 896 893.54752 896zM818.89792 330.4192l-614.4 0 0 102.4 614.4 0L818.89792 330.4192z"  horiz-adv-x="1024" />

    
    <glyph glyph-name="fasong" unicode="&#58947;" d="M915.515273 753.180615 98.213046 437.800878c-46.058539-17.772838-44.90475-43.601756 2.348455-57.622994l197.477685-58.594874 80.292024-238.91085c10.51184-31.277988 37.972822-37.873693 61.462483-14.603752l103.584447 102.611545 204.475018-149.840224c26.565749-19.467242 53.878547-9.222132 61.049613 23.090076l149.210699 672.34491C965.264096 748.494946 946.218922 765.028152 915.515273 753.180615zM791.141174 601.165669l-348.61988-310.610267c-6.268679-5.58499-11.941557-16.652774-12.812263-24.846818l-15.390659-144.697741c-1.728128-16.24808-7.330491-16.918483-12.497501-1.344894l-67.457277 203.338603c-2.638691 7.954906 0.975968 17.705389 8.022355 21.931178l442.114555 265.181253C812.67481 627.015026 815.674251 623.024287 791.141174 601.165669z"  horiz-adv-x="1024" />

    
    <glyph glyph-name="9" unicode="&#58890;" d="M509.828339 758.673429c103.583407 0 197.055946-41.826739 265.024525-110.207945 67.664486-67.743325 109.655047-161.474907 109.655047-264.59347 0-103.461564-41.990561-196.808165-109.655047-264.911898l-2.379509-1.991456c-67.46278-66.76961-160.260579-107.879629-262.645016-107.87963-103.583407 0-197.397923 42.48305-264.902683 109.870063h-0.660406c-67.841618 68.104756-109.340714 161.451357-109.340714 264.911897 0 103.119587 41.499096 196.850145 109.340714 264.59347l2.351865 2.370295c68.169261 66.372342 160.944534 107.838674 263.211224 107.838674z m-41.493976-194.137873V425.337322H328.752172c-22.918649 0-41.99568-18.533348-41.995681-41.466332 0-22.8951 19.077031-41.788856 41.995681-41.788855h139.582191v-138.874686c0-23.209433 18.575328-41.446878 41.493976-41.446878 23.100901 0 41.493977 18.238469 41.493977 41.446878V342.082135H690.838978c22.960628 0 42.01411 18.893756 42.01411 41.788855 0 22.932984-19.053482 41.466332-42.01411 41.466332H551.322316V564.535556c0 23.269842-18.393076 41.78476-41.493977 41.78476-22.918649 0-41.493977-18.514918-41.493976-41.78476z m247.638952 25.579727c-52.958421 52.620538-125.663494 84.628218-206.144976 84.628218-79.64292 0-152.034684-30.971507-204.650103-82.918329l-1.696578-2.028317C250.669653 537.582799 217.916585 464.100597 217.916585 383.872014c0-80.191723 32.752044-153.688259 85.565073-205.92484 52.620538-52.873438 125.367591-85.283504 206.346681-85.283504 79.287632 0 151.992705 31.711776 204.135089 83.269521l2.009887 2.015007c52.995281 52.236582 85.546643 125.733118 85.546643 205.92484 0 80.228582-32.550338 153.711808-85.546643 205.924841v0.317404z"  horiz-adv-x="1024" />

    
    <glyph glyph-name="shenpi" unicode="&#58924;" d="M608 288c-6.4 3.2-16 6.4-22.4 6.4-3.2 0-35.2 16-16 70.4 48 51.2 86.4 131.2 86.4 208 0 121.6-80 185.6-172.8 185.6-92.8 0-172.8-64-172.8-185.6 0-80 35.2-160 86.4-208 19.2-51.2-16-67.2-22.4-70.4C275.2 259.2 160 195.2 160 131.2v-22.4c0-83.2 150.4-105.6 297.6-105.6-3.2 12.8-3.2 22.4 0 35.2l35.2 124.8c3.2 12.8 12.8 25.6 22.4 35.2L608 288z m188.8-28.8L768 288l-38.4 38.4-176-172.8-6.4-6.4-35.2-128c0-6.4 0-12.8 3.2-16 3.2-3.2 6.4-3.2 9.6-3.2h3.2l124.8 35.2c3.2 0 6.4 3.2 6.4 6.4l176 172.8-38.4 44.8z m-224-214.4l-16 16 19.2 67.2 9.6-9.6 41.6-3.2 3.2-41.6 9.6-9.6-67.2-19.2z m172.8 297.6l108.8-108.8 25.6 22.4-108.8 108.8-25.6-22.4z m163.2 3.2l-51.2 51.2c-16 16-38.4 16-51.2 0l-16-16 105.6-105.6 16 16c12.8 16 12.8 38.4-3.2 54.4z"  horiz-adv-x="1024" />

    
    <glyph glyph-name="liuchengdingyi" unicode="&#58945;" d="M661.632 419.84L474.688 496.384v-223.872L661.632 345.6H960v52.48a22.08 22.08 0 0 1-22.4 21.952h-275.968v-0.128zM474.688 272.512V496.32l-186.88-75.264h-126.72a22.4 22.4 0 0 0-21.952 22.912V667.2c0 12.736 9.984 22.912 21.76 22.912h14.976v56.832H86.72A22.528 22.528 0 0 1 64 724.288v-356.032c0-12.544 9.6-22.784 22.272-22.784h201.6l186.816-73.024v0.064z m336-187.2v-73.216h126.72a22.08 22.08 0 0 1 22.528 21.888V345.536h-74.368v-238.08a22.464 22.464 0 0 0-22.016-22.144h-52.864zM278.656 713.728l-85.504-45.248c-9.536-4.992-17.28-1.92-17.28 7.04V770.304c0 8.96 7.744 12.16 17.28 7.04l85.504-45.248c9.6-4.992 9.6-13.312 0-18.304v-0.064z m462.08-671.36l57.984-45.312c6.528-5.056 11.776-1.92 11.776 7.04v94.848c0 8.96-5.184 12.096-11.776 7.04l-57.984-45.312c-6.528-5.056-6.528-13.248 0-18.368z m-116.736 43.52a37.312 37.312 0 1 1 0-74.624 37.312 37.312 0 0 1 0 74.688zM788.032 832c12.416 0 22.4-9.6 22.592-22.272l0.768-179.328a22.144 22.144 0 0 0-22.208-22.336H312.512a22.272 22.272 0 0 0-22.592 22.336l-0.96 179.2c0 12.352 9.856 22.336 22.336 22.336h476.8V832z m-74.624-672.128a22.4 22.4 0 0 0 22.528-22.4l0.896-179.2a22.144 22.144 0 0 0-22.272-22.272H237.824a22.272 22.272 0 0 0-22.528 22.272l-0.96 179.328c0 12.352 9.856 22.336 22.272 22.336h476.8v-0.064zM401.216 682.816a37.952 37.952 0 0 1 38.4 37.312 37.824 37.824 0 0 1-38.4 37.312 37.952 37.952 0 0 1-38.528-37.44c0-20.608 17.152-37.312 38.528-37.312v0.128z"  horiz-adv-x="1024" />

    
    <glyph glyph-name="zaitu-" unicode="&#58919;" d="M650.325333-34.090667a33.664 33.664 0 0 1-32.896 25.685334 27.392 27.392 0 0 1-8.064-1.450667h-0.085333a194.816 194.816 0 0 0-23.424-4.736l-0.426667-0.213333a33.237333 33.237333 0 0 1-21.76-13.994667 35.541333 35.541333 0 0 1-5.504-25.514667c1.408-8.362667 6.4-16.213333 13.994667-21.589333l0.256-0.426667a34.56 34.56 0 0 1 18.816-5.930666h2.090667l1.408 0.64h0.341333c0.682667 0 1.92 0.384 3.072 0.597333 8.917333 1.834667 18.176 3.498667 27.093333 5.717333a33.92 33.92 0 0 1 21.077334 15.146667l0.256 0.469333a33.792 33.792 0 0 1 3.925333 25.258667l-0.170667 0.341333zM894.08 507.264a34.432 34.432 0 0 1 11.904-16.896 30.421333 30.421333 0 0 1 20.096-6.869333 31.402667 31.402667 0 0 1 10.666667 1.877333 34.176 34.176 0 0 1 21.674666 42.922667v0.213333c-3.242667 8.576-6.186667 17.92-9.984 26.88a34.005333 34.005333 0 0 1-31.658666 21.248 29.909333 29.909333 0 0 1-12.757334-2.688 32.341333 32.341333 0 0 1-18.432-17.962667 32 32 0 0 1 0.256-26.112c2.730667-7.552 5.674667-15.232 8.234667-22.613333zM781.482667 36.736a35.84 35.84 0 0 1-28.586667 14.72 32.853333 32.853333 0 0 1-18.688-5.930667c-7.253333-5.034667-13.568-8.917333-20.266667-12.629333h-0.341333a34.304 34.304 0 0 1-12.757333-46.208 30.08 30.08 0 0 1 9.984-10.666667 32.213333 32.213333 0 0 1 19.242666-6.698666 35.712 35.712 0 0 1 17.578667 4.736c2.602667 1.664 4.992 3.114667 7.594667 4.522666 5.76 3.456 11.264 6.741333 16.341333 10.24l0.426667 0.341334a34.986667 34.986667 0 0 1 14.165333 20.992 34.986667 34.986667 0 0 1-4.352 25.557333l-0.341333 1.024zM981.077333 398.634667a33.834667 33.834667 0 0 1-33.834666 32.512h-1.408a34.048 34.048 0 0 1-32.426667-34.901334v-0.426666c0.426667-7.850667 0.426667-15.701333 0-23.893334v-1.322666a35.925333 35.925333 0 0 1 14.677333-27.349334 30.848 30.848 0 0 1 19.157334-6.229333h0.341333A33.621333 33.621333 0 0 1 981.333333 370.346667c0 9.386667 0 18.773333-0.256 28.288zM880.981333 146.090667a32.170667 32.170667 0 0 1-20.352 6.954666 34.474667 34.474667 0 0 1-26.922666-13.738666l-0.341334-0.128c-4.48-6.4-9.770667-12.757333-15.232-19.242667l-0.085333-0.298667a34.730667 34.730667 0 0 1-7.765333-24.576 32.597333 32.597333 0 0 1 11.434666-22.613333c0.896-1.066667 2.090667-1.706667 3.754667-2.730667a33.578667 33.578667 0 0 1 18.986667-5.632 34.773333 34.773333 0 0 1 25.344 11.648h0.341333c6.229333 7.552 12.245333 15.061333 17.92 22.741334l0.256 0.426666a34.176 34.176 0 0 1-7.338667 47.189334zM938.666667 283.136c-4.010667 1.749333-7.68 1.749333-10.581334 1.749333a33.322667 33.322667 0 0 1-32.170666-23.808c-2.432-7.552-5.333333-15.36-7.936-23.338666h-0.256a34.005333 34.005333 0 0 1 12.074666-39.936c1.749333-1.322667 3.925333-2.133333 6.186667-3.328l0.597333-0.213334 0.981334-0.384a33.92 33.92 0 0 1 43.008 19.84l0.256 0.256c2.901333 8.405333 6.186667 17.578667 9.173333 26.581334a33.621333 33.621333 0 0 1-21.333333 42.581333zM462.677333-28.842667a34.389333 34.389333 0 0 1-21.76 13.610667 403.882667 403.882667 0 0 0-97.066666 30.549333l-2.176 2.133334h-2.005334c-6.826667 3.242667-13.738667 6.314667-19.157333 9.984l-2.944 1.578666h-0.426667a397.226667 397.226667 0 0 0-35.754666 22.656 399.701333 399.701333 0 0 0-164.266667 259.797334 397.568 397.568 0 0 0 67.413333 299.733333 388.608 388.608 0 0 0 98.602667 98.005333l1.152 1.152a401.621333 401.621333 0 0 0 229.077333 71.082667c79.402667 0 156.416-23.253333 222.165334-67.114667l3.669333-2.517333-42.154667-61.397333 145.834667 14.421333a16.938667 16.938667 0 0 1 13.994667 7.466667 18.005333 18.005333 0 0 1 2.090666 15.402666l-39.68 141.738667-42.325333-60.8-3.498667 2.005333a464.384 464.384 0 0 1-260.565333 79.573334c-27.904 0-55.168-2.261333-81.578667-7.125334l-2.688-0.597333c-11.008-2.048-22.186667-4.053333-32.853333-7.125333l-1.536-0.426667a462.08 462.08 0 0 1-258.005333-172.8l-3.242667-4.821333-0.170667-0.170667c-1.322667-2.005333-3.072-4.266667-4.48-6.741333-3.754667-4.992-6.912-9.813333-9.941333-14.848l-1.066667-2.133334a465.365333 465.365333 0 0 1-74.24-273.749333v-1.834667c0.426667-8.832 1.578667-18.389333 2.090667-27.648v-0.810666l0.512-1.877334c1.152-9.770667 2.432-19.114667 4.266667-27.776a463.786667 463.786667 0 0 1 131.328-252.416l0.597333-0.469333c19.157333-18.858667 39.509333-35.797333 59.989333-50.304a459.648 459.648 0 0 1 186.837334-78.165333 33.408 33.408 0 0 1 39.466666 27.264v0.256a37.205333 37.205333 0 0 1-5.077333 24.576l-0.426667 0.682666zM489.002667 684.757333a26.88 26.88 0 0 1-26.666667-27.008v-304.384l278.4-144.256c3.84-2.133333 7.594667-2.944 12.16-2.944 10.325333 0 19.328 5.546667 24.064 14.378667 2.986667 6.4 3.925333 13.653333 1.578667 20.437333a26.325333 26.325333 0 0 1-13.184 15.616l-249.770667 129.109334V657.749333a26.666667 26.666667 0 0 1-26.581333 27.008z"  horiz-adv-x="1024" />

    
    <glyph glyph-name="wodeshezhi" unicode="&#58907;" d="M332.047758 153.845469a12.827714 12.827714 0 0 1 17.990473-13.271142l164.004701 71.708506-162.246829 119.757006a76323.933436 76323.933436 0 0 1-19.748345-178.19437z m35.537519 224.120754l186.271079-137.462418L853.708135 647.997526 667.437055 785.459944 367.585277 377.966223z m209.186761-70.251531l-20.065079 14.8073 14.775627 20.080916 20.080915-14.791464-14.791463-20.096752z m230.170368 312.806186L599.988617 339.293041l-20.049242 14.807299L786.893164 635.328178l20.049242-14.8073z m64.566162 111.775317l-128.95812 95.178472a35.585029 35.585029 0 0 1-49.774698-7.569935l-10.563068-14.348035 186.271079-137.462419 10.563069 14.332199a35.711723 35.711723 0 0 1-7.538262 49.869718zM362.169131-66.411135c-15.32991 0-30.248067 1.837055-44.390226 5.907083-45.51463 13.049428-78.154036 46.132261-94.370801 95.685246-3.658274 11.180699-11.386576 30.311414-22.012991 32.971976-22.630622 5.653696-72.041076-27.872564-97.569811-54.383173-20.603526-21.427034-53.654686-20.999443-73.783112 0.886854-20.144262 21.886298-19.795855 56.98039 0.823507 78.37575 17.056109 17.72125 106.533375 104.902196 194.426972 83.031736 31.039901-7.759975 73.022951-32.180142 96.682957-104.458769 5.558676-16.929415 13.207795-22.266378 23.010702-25.069471 45.3721-12.986081 142.450974 33.38373 195.741417 81.939004 231.88073 211.24553 372.336282 174.37773 449.350077 106.248314 22.123848-19.589978 25.132818-54.54154 6.698918-78.074853-18.449737-23.517476-51.34253-26.716486-73.498051-7.110671-83.475162 73.909805-217.16845-16.454315-314.611569-105.21893-51.944324-47.304176-156.41893-110.714259-246.497989-110.730096z"  horiz-adv-x="1024" />

    
    <glyph glyph-name="wodeshezhi1" unicode="&#58908;" d="M367.205196 190.158985h255.303186c8.726013 0 15.836684 7.094835 15.836685 15.852521v31.752552c0 8.74185-7.110671 15.868358-15.836685 15.868358H367.205196c-8.757686 0-15.836684-7.126508-15.836684-15.868358v-31.752552a15.836684 15.836684 0 0 1 15.836684-15.852521zM263.506588 465.05215a63.932694 62.99833 0 1 1 127.865388 0 63.932694 62.99833 0 1 1-127.865388 0ZM597.328054 465.036313a64.914569 63.932694 0 1 1 129.829137 0 64.914569 63.932694 0 1 1-129.829137 0ZM989.697742 568.085617a90.427467 90.427467 0 0 1-64.407795 26.732323H900.315496C824.346922 761.752428 659.233653 868.745067 475.41726 868.745067 217.564367 868.745067 7.775812 658.956511 7.775812 401.103619c0-200.318218 126.060006-376.07374 314.975812-441.162512a90.950077 90.950077 0 0 1 85.723971-60.686174h172.714878a91.124281 91.124281 0 0 1 91.045098 90.997588v34.270584a91.140118 91.140118 0 0 1-91.045098 91.029261H408.475595a91.171791 91.171791 0 0 1-74.242375-38.752366c-128.087102 55.824312-212.845036 183.768883-212.845036 324.319456 0 195.234643 158.810269 354.060749 354.029076 354.060748 144.161336 0 275.067368-89.192205 328.45283-222.837983a89.002165 89.002165 0 0 1-4.719332-28.521868v-205.417631a91.124281 91.124281 0 0 1 91.060934-90.997587h35.030745a91.076771 91.076771 0 0 1 90.981751 90.997587V503.757006a90.12657 90.12657 0 0 1-26.526446 64.328611z"  horiz-adv-x="1024" />

    
    <glyph glyph-name="faqiliucheng" unicode="&#59183;" d="M665.616 116.304h-149.536c-11.136 0-14.528 7.088-7.536 15.76l47.744 64 7.776 9.648H26.368c-11.136 0-20.24-9.104-20.24-20.24v-122.112c0-11.136 9.104-20.24 20.24-20.24h659.472v52.96c0 11.12-9.104 20.224-20.224 20.224zM26.368 334.576h637.008s115.296 151.392 122.272 160.064l2.032 2.528H26.352c-11.136 0-20.24-9.104-20.24-20.24v-122.112a20.32 20.32 0 0 1 20.256-20.24zM997.632 779.744H157.888c-11.136 0-20.24-9.104-20.24-20.24v-122.112c0-11.136 9.104-20.24 20.24-20.24h839.744c11.136 0 20.24 9.104 20.24 20.24V759.504c0 11.12-9.104 20.24-20.24 20.24zM840.8 418.688c-6.992 8.672-18.416 8.672-25.392 0l-158.816-197.024c-6.976-8.672-3.6-15.76 7.536-15.76h72.304c11.136 0 20.24-9.104 20.24-20.24v-177.168c0-11.136 9.104-20.24 20.24-20.24h102.384c11.136 0 20.24 9.104 20.24 20.24V185.664c0 11.136 9.104 20.24 20.24 20.24h72.304c11.136 0 14.528 7.088 7.536 15.76L840.8 418.688z"  horiz-adv-x="1024" />

    
    <glyph glyph-name="notallcheck" unicode="&#58883;" d="M857.647 819.51h-700.483c-48.87 0-88.485-39.796-88.485-88.887v-703.695c0-49.091 39.615-88.887 88.485-88.887h700.483c48.867 0 88.482 39.796 88.482 88.887v703.695c0 49.090-39.615 88.887-88.482 88.887zM721.648 316.058h-437.848c-36.552 0-66.186 28.079-66.186 62.717 0 34.641 29.634 62.717 66.186 62.717h437.848c36.555 0 66.186-28.077 66.186-62.717 0-34.638-29.632-62.717-66.186-62.717z"  horiz-adv-x="1024" />

    
    <glyph glyph-name="wode-shezhi" unicode="&#59005;" d="M939.9 461l-80.2 33.4c-0.2 0.1-0.5 0.2-0.7 0.3-6.2 19.5-14.2 38.8-23.8 57.2 0.3 0.6 0.6 1.2 0.8 1.9l32.7 79.2c5.4 12.9 2.4 27.8-7.5 37.7l-62.7 62.8c-9.9 9.9-24.7 12.9-37.7 7.5l-80.1-33c-0.3-0.1-0.7-0.3-1-0.5-18.6 9.7-37.8 17.7-57.2 23.8-0.2 0.4-0.4 0.9-0.5 1.3l-33.1 79.6c-5.4 12.9-18 21.4-32 21.4H468c-14 0-26.6-8.4-32-21.4L402.7 732c-0.1-0.2-0.2-0.5-0.3-0.7-19.4-6.2-38.7-14.2-57.2-23.8-0.6 0.3-1.3 0.6-1.9 0.9L264 740.9c-12.9 5.3-27.8 2.4-37.7-7.5l-62.7-62.7c-9.9-9.9-12.9-24.8-7.5-37.7l33-80.1c0.2-0.3 0.4-0.7 0.5-1-9.7-18.6-17.7-37.9-23.8-57.2-0.4-0.2-0.9-0.3-1.4-0.5L84.8 461c-13-5.4-21.4-18-21.4-32v-88.7c0-14 8.4-26.6 21.4-32l80.2-33.4c0.2-0.1 0.5-0.2 0.7-0.3 6.2-19.4 14.2-38.7 23.8-57.2-0.3-0.7-0.6-1.3-0.9-2L156 136.2c-5.4-12.9-2.4-27.8 7.5-37.7l62.7-62.7c9.9-9.9 24.8-12.9 37.7-7.5l80.1 33c0.3 0.1 0.7 0.3 1 0.5 18.5-9.6 37.7-17.6 57.2-23.8 0.2-0.5 0.3-0.9 0.5-1.3l33.1-79.6c5.4-12.9 18-21.4 32-21.4h88.7c14 0 26.6 8.4 32 21.4l33.4 80.2c0.1 0.2 0.2 0.5 0.3 0.8 19.5 6.2 38.8 14.2 57.2 23.8 0.6-0.3 1.3-0.6 1.9-0.9l79.2-32.7c13-5.3 27.8-2.4 37.7 7.5l62.7 62.7c9.9 9.9 12.9 24.8 7.5 37.7l-33 80.1c-0.2 0.3-0.3 0.7-0.5 1 9.6 18.5 17.6 37.8 23.8 57.3 0.5 0.2 0.9 0.3 1.3 0.5l79.6 33.1c13 5.4 21.4 18 21.4 32V429c0.2 14-8.2 26.6-21.1 32zM512.3 255.5c-71.3 0-129.1 57.8-129.1 129.1S441 513.7 512.3 513.7s129.1-57.8 129.1-129.1-57.8-129.1-129.1-129.1z"  horiz-adv-x="1024" />

    
    <glyph glyph-name="renwu" unicode="&#59000;" d="M673.792 388.608c-112.64 0-203.776-91.648-203.776-203.776 0-112.64 91.648-203.776 203.776-203.776 112.64 0 203.776 91.648 203.776 203.776 0.512 112.128-91.136 203.776-203.776 203.776z m126.464-160.768L660.48 88.064c-4.608-4.608-10.24-6.656-16.384-6.656-6.144 0-11.776 2.048-16.384 6.656L547.84 167.424c-9.216 9.216-9.216 23.552 0 32.768 9.216 9.216 23.552 9.216 32.768 0l62.976-62.976 123.392 123.392c9.216 9.216 23.552 9.216 32.768 0 9.728-8.704 9.728-23.552 0.512-32.768zM329.216 570.368c-14.336 0-27.648 6.144-35.84 16.896-8.704 10.752-11.264 24.576-7.68 38.4l11.264 44.544c6.144 24.064 29.696 36.864 54.784 36.864h43.52c0.512 0 1.024 0.512 1.024 1.024l11.264 49.152c6.144 24.064 29.696 41.984 54.784 41.984H506.88c25.088 0 48.64-17.92 54.784-41.984l11.264-49.152 1.024-1.024h43.52c25.088 0 48.64-12.8 54.784-36.864l11.264-44.544c3.584-13.824 0.512-27.648-7.68-38.4-8.704-10.752-21.504-16.896-35.84-16.896H329.216zM762.88 752.128h-179.712l3.584-17.408c0.512-0.512 1.024-1.024 1.536-1.024h51.2c29.184 0 56.832-24.576 64-57.344l13.312-61.44c4.096-18.944 0.512-37.888-9.216-52.736-9.728-14.336-25.088-23.04-41.984-23.04H302.592c-16.896 0-32.256 8.192-41.984 23.04-9.728 14.336-13.312 33.792-9.216 52.736l13.312 61.44c7.168 32.768 34.816 57.344 64 57.344h51.2c0.512 0 1.024 0.512 1.536 1.024l3.584 17.408H212.48c-48.128 0-76.8-28.16-76.8-76.8v-628.736c0-48.128 30.208-76.8 76.8-76.8h355.328l-17.408 8.704c-1.024 0.512-2.048 1.024-3.072 2.048-67.584 42.496-113.152 117.76-113.152 203.264 0 132.096 107.52 239.616 239.616 239.616 56.32 0 108.032-19.456 148.992-52.224l9.728-10.752V675.84c0 45.568-25.6 73.728-69.632 76.288zM396.288 219.136h-92.16c-21.504 0-35.328 19.456-35.328 40.96s14.336 40.96 36.352 40.96h122.368c-19.456-23.04-27.136-52.224-31.232-81.92zM464.384 389.12H305.152c-21.504 0-36.352 19.456-36.352 40.96s14.336 40.96 36.352 40.96H609.28c-54.272-11.776-107.008-43.52-144.896-81.92z"  horiz-adv-x="1024" />

    
    <glyph glyph-name="fenbu" unicode="&#58897;" d="M512 896C228.430769 896 0 667.569231 0 384s228.430769-512 512-512 512 228.430769 512 512S795.569231 896 512 896z m0-945.230769C271.753846-49.230769 78.769231 143.753846 78.769231 384S271.753846 817.230769 512 817.230769s433.230769-192.984615 433.230769-433.230769-192.984615-433.230769-433.230769-433.230769zM630.153846 699.076923c-66.953846 0-118.153846-51.2-118.153846-118.153846s51.2-118.153846 118.153846-118.153846 118.153846 51.2 118.153846 118.153846-51.2 118.153846-118.153846 118.153846z m0-157.538461c-23.630769 0-39.384615 15.753846-39.384615 39.384615s15.753846 39.384615 39.384615 39.384615 39.384615-15.753846 39.384616-39.384615-15.753846-39.384615-39.384616-39.384615zM275.692308 502.153846c-66.953846 0-118.153846-51.2-118.153846-118.153846s51.2-118.153846 118.153846-118.153846 118.153846 51.2 118.153846 118.153846-51.2 118.153846-118.153846 118.153846z m0-157.538461c-23.630769 0-39.384615 15.753846-39.384616 39.384615s15.753846 39.384615 39.384616 39.384615 39.384615-15.753846 39.384615-39.384615-15.753846-39.384615-39.384615-39.384615zM630.153846 305.230769c-66.953846 0-118.153846-51.2-118.153846-118.153846s51.2-118.153846 118.153846-118.153846 118.153846 51.2 118.153846 118.153846-51.2 118.153846-118.153846 118.153846z m0-157.538461c-23.630769 0-39.384615 15.753846-39.384615 39.384615s15.753846 39.384615 39.384615 39.384615 39.384615-15.753846 39.384616-39.384615-15.753846-39.384615-39.384616-39.384615zM522.633846 588.918154l34.146462-70.971077-212.913231-102.518154-34.185846 70.971077zM554.141538 235.953231L512 169.393231 312.32 295.778462 354.461538 362.338462z"  horiz-adv-x="1024" />

    
    <glyph glyph-name="wode-" unicode="&#58887;" d="M711.9 387.4c-51.2-46.8-119.1-75.5-193.9-75.5-76.1 0-145.1 29.7-196.6 78C202 357.4 128 246.4 128 114.1v-67.6c0-157.7 767.9-157.7 767.9 0v67.6c0.1 128.9-70 237.8-184 273.3zM518 359.8c132.5 0 240 107.4 240 240s-107.4 240-240 240c-132.5 0-240-107.4-240-240s107.5-240 240-240z"  horiz-adv-x="1024" />

    
    <glyph glyph-name="shouquan" unicode="&#58976;" d="M925.008711 254.566274c0 100.269023-81.321332 181.591571-181.591571 181.591571s-181.594004-81.322548-181.594004-181.591571c0-51.494955 21.480051-98.018848 55.905299-131.035608l-55.059963-95.391617 72.971357 5.252031 31.892889-65.844992 61.154897 105.99055c4.879839-0.37584 9.75603-0.561936 14.728309-0.561936 4.969846 0 9.847253 0.186096 14.728309 0.561936l61.152464-105.99055 31.892888 65.844992 72.97379-5.252031-55.059962 95.391617c34.425248 33.110416 55.905299 79.541869 55.905298 131.035608z m-87.699666-93.891906c-25.043842-25.043842-58.432793-38.925598-93.888256-38.925598-35.457896 0-68.851712 13.789317-93.893121 38.925598-25.043842 25.138714-38.926815 58.436442-38.926815 93.893122 0 35.455463 13.788101 68.848063 38.926815 93.891905 25.136281 25.043842 58.435226 38.923166 93.893121 38.923166 35.455463 0 68.845631-13.786884 93.888256-38.923166 25.046274-25.138714 38.926815-58.436442 38.926815-93.891905 0-35.45668-13.788101-68.754407-38.926815-93.893122zM322.548019 744.336975V797.61261L99.964337 651.774498H153.148749l169.495359-0.097305-0.096089 92.659782zM362.245975 608.828992l-198.966573 0.548556H99.964337l-0.973048-565.715939c18.719025 0 348.493756 0.608155 348.493755 0.608155h81.137669l42.860364 74.288622c-11.724021 14.915621-21.477618 31.141208-29.074696 48.680412-12.006205 27.671073-18.102355 57.02917-18.102355 87.419915 0 58.528881 22.791234 113.587628 64.157968 154.953146s96.423048 64.157968 154.953146 64.157968c28.6052 0 56.278706-5.439342 82.070579-15.85218V781.490408c0 9.089492 0.184879 12.071886-0.059599 14.824398h-9.096789l-451.482451 1.297804v-63.407505l-2.602905-125.376113z m-101.135037-101.02192h182.316493c17.445548 0 31.703144-14.25638 31.703144-31.701928 0-17.44798-14.163941-31.705577-31.608272-31.705576H261.110938c-17.44798 0-31.70436 14.257597-31.70436 31.705576 0 17.445548 14.25638 31.701928 31.70436 31.701928m187.782594-238.79589H259.70245c-16.6963 0-30.297089 14.257597-30.297088 31.70436 0 17.445548 13.599572 31.700711 30.297088 31.700712h189.189866c16.695084 0 30.297089-14.25638 30.297089-31.700712 0-17.446764-13.600789-31.70436-30.295873-31.70436"  horiz-adv-x="1024" />

    
    <glyph glyph-name="qy_bdfw_6" unicode="&#58901;" d="M335.507 354.754c-4.062-5.115-20.319-23.284-23.594-27.804-16.121-22.253-20.351-57.144-14.127-78.468 8.802-30.156 38.94-33.53 61.266-35.766 51.744-5.181 104.361-1.649 156.625-1.663 50.956-0.014 101.927 0.692 152.865-0.282 30.092-0.577 55.441 7.734 68.003 36.106 13.389 30.243 6.495 58.835-16.231 83.122-8.029 8.58-16.343 16.9-24.659 25.208-19.111 19.093-18.734 38.259-1.818 58.874 15.714 19.151 31.798 38.286 45.037 59.133 71.359 112.369 46.472 258.668-57.331 341.933-104.396 83.742-256.232 76.042-350.185-17.756-102.109-101.941-85.599-270.128 5.295-383.98 20.974-26.269 11.436-42.817-1.145-58.658zM944.655 83.495c-0.213 54.804-23.616 80.767-77.555 80.883-233.967 0.503-467.936 0.352-701.903-0.288-53.615-0.146-76.27-23.975-76.971-76.696-0.328-24.64-0.056-49.289-0.056-76.664 288.216 0 571.097 0 856.499 0 0.001 26.069 0.077 49.417-0.014 72.764zM136.123-105.884c256.568 0 508.043 0 758.716 0 0 28.005 0 53.221 0 78.139-254.793 0-506.201 0-758.716 0 0-27.493 0-51.853 0-78.139z"  horiz-adv-x="1024" />

    
    <glyph glyph-name="lcchaxun" unicode="&#58933;" d="M550.702121 590.20735h-46.121302V681.838064h34.20472a42.373469 42.373469 0 0 1 42.358172 42.373469V853.473558A42.373469 42.373469 0 0 1 538.785539 895.847027h-129.338512a42.373469 42.373469 0 0 1-42.358171-42.373469v-129.262025A42.373469 42.373469 0 0 1 409.447027 681.838064h34.204721v-91.630714H130.684673a69.2049 69.2049 0 0 1-69.067225-69.143711v-97.137735H28.957753a28.957753 28.957753 0 0 1-28.942456-28.911862v-493.949208a28.850672 28.850672 0 0 1 28.942456-28.911861h126.0343a28.86597 28.86597 0 0 1 28.942456 28.911861V395.014042a28.957753 28.957753 0 0 1-28.942456 28.911862H121.919331l0.627188 80.00478a25.317 25.317 0 0 0 25.347595 25.240514h295.803526l0.688377-105.245294h-33.225694a28.97305 28.97305 0 0 1-28.973051-28.911862v-493.949208a28.881267 28.881267 0 0 1 28.973051-28.911861h126.019002a28.881267 28.881267 0 0 1 28.957753 28.911861V395.014042a28.97305 28.97305 0 0 1-28.957753 28.911862h-32.124291l-0.382432 105.245294h45.891844m229.122677-268.467284v-359.63908a28.86597 28.86597 0 0 1 28.942456-28.911861h126.049596a28.86597 28.86597 0 0 1 28.942456 28.911861V272.63579300000004a305.012489 305.012489 0 0 0-100.65611-18.815656 463.6147 463.6147 0 0 0-83.278398 6.883777z m305.746758 9.79026a45.524709 45.524709 0 0 0-32.460831 13.461607l-82.605318 82.299373a221.458739 221.458739 0 1 0 100.870272 185.55602 218.383986 218.383986 0 0 0-35.948611-120.695548l82.513535-82.299373a45.891843 45.891843 0 0 0-32.369047-78.322079zM849.289752 681.685091a129.797431 129.797431 0 1 1 130.02689-129.873917 130.02689 130.02689 0 0 1-130.02689 129.873917z"  horiz-adv-x="1131" />

    
    <glyph glyph-name="shanchu3" unicode="&#58899;" d="M1070.545455 570.181818h-93.09091v-512a186.181818 186.181818 0 0 0-186.181818-186.181818H325.818182a186.181818 186.181818 0 0 0-186.181818 186.181818V570.181818H46.545455a46.545455 46.545455 0 0 0 0 93.090909h186.181818V709.818182a186.181818 186.181818 0 0 0 186.181818 186.181818h279.272727a186.181818 186.181818 0 0 0 186.181818-186.181818v-46.545455h186.181819a46.545455 46.545455 0 0 0 0-93.090909z m-279.272728 139.636364a93.090909 93.090909 0 0 1-93.090909 93.090909H418.909091a93.090909 93.090909 0 0 1-93.090909-93.090909v-46.545455h465.454545V709.818182z m93.090909-139.636364H232.727273v-512a93.090909 93.090909 0 0 1 93.090909-93.090909h465.454545a93.090909 93.090909 0 0 1 93.090909 93.090909V570.181818z m-139.636363-465.454545a46.545455 46.545455 0 0 0-46.545455 46.545454v279.272728a46.545455 46.545455 0 0 0 93.090909 0v-279.272728a46.545455 46.545455 0 0 0-46.545454-46.545454z m-186.181818 0a46.545455 46.545455 0 0 0-46.545455 46.545454v279.272728a46.545455 46.545455 0 0 0 93.090909 0v-279.272728a46.545455 46.545455 0 0 0-46.545454-46.545454z m-186.181819 0a46.545455 46.545455 0 0 0-46.545454 46.545454v279.272728a46.545455 46.545455 0 0 0 93.090909 0v-279.272728a46.545455 46.545455 0 0 0-46.545455-46.545454z"  horiz-adv-x="1117" />

    
    <glyph glyph-name="tuichu" unicode="&#58889;" d="M484.693333 110.933333h-136.533333c-64.853333 0-119.466667 54.613333-119.466667 119.466667v375.466667c0 68.266667 51.2 119.466667 119.466667 119.466666h136.533333c27.306667 0 51.2-23.893333 51.2-51.2S512 622.933333 484.693333 622.933333h-136.533333c-10.24 0-17.066667-6.826667-17.066667-17.066666v-375.466667c0-10.24 6.826667-17.066667 17.066667-17.066667h136.533333c27.306667 0 51.2-23.893333 51.2-51.2S512 110.933333 484.693333 110.933333zM727.04 384l-119.466667 119.466667c-20.48 20.48-20.48 51.2 0 71.68 20.48 20.48 51.2 20.48 71.68 0l119.466667-119.466667c20.48-20.48 20.48-51.2 0-71.68-20.48-20.48-51.2-20.48-71.68 0zM798.72 384l-119.466667-119.466667c-20.48-20.48-51.2-20.48-71.68 0-20.48 20.48-20.48 51.2 0 71.68l119.466667 119.466667c20.48 20.48 51.2 20.48 71.68 0 20.48-20.48 20.48-51.2 0-71.68zM433.493333 469.333333h204.8c27.306667 0 51.2-23.893333 51.2-51.2s-23.893333-51.2-51.2-51.2h-204.8c-27.306667 0-51.2 23.893333-51.2 51.2s20.48 51.2 51.2 51.2z"  horiz-adv-x="1024" />

    
    <glyph glyph-name="tuichuquanping" unicode="&#58917;" d="M448 335H158.5c-13.4 0-20.1-16.2-10.7-25.7L250 207.2 100.8 58a30.057 30.057 0 0 1 0-42.6l42.6-42.6c11.8-11.8 30.8-11.8 42.6 0L335.2 122l102.1-102.1c9.5-9.5 25.7-2.8 25.7 10.7V320c0 8.3-6.7 15-15 15zM923.2 752.6l-42.6 42.6a30.057 30.057 0 0 1-42.6 0L688.8 646 586.7 748.2c-9.5 9.5-25.7 2.8-25.7-10.7V448c0-8.3 6.7-15.1 15.1-15.1h289.5c13.4 0 20.1 16.2 10.7 25.7L774 560.8 923.2 710c11.7 11.7 11.7 30.8 0 42.6z"  horiz-adv-x="1024" />

    
    <glyph glyph-name="wo" unicode="&#59006;" d="M969.386667-66.56c0-22.755556-18.204444-40.96-40.96-40.96H111.502222c-22.755556 0-40.96 18.204444-40.96 40.96 0 0 6.826667 141.084444 118.328889 195.697778 70.542222 34.133333 43.235556 18.204444 129.706667 52.337778 86.471111 34.133333 106.951111 59.164444 106.951111 59.164444l-4.551111 45.511111s-95.573333 27.306667-111.502222 131.982222c-29.582222-6.826667-38.684444 31.857778-40.96 56.888889-2.275556 25.031111-18.204444 102.4 18.204444 95.573334-6.826667 52.337778-13.653333 97.848889-9.102222 122.88 4.551111 40.96-6.826667 47.786667 31.857778 79.644444 9.102222 9.102222-9.102222 47.786667-2.275556 59.164444 11.377778 22.755556 88.746667 13.653333 100.124444 18.204445 31.857778 13.653333 68.266667 22.755556 106.951112 25.031111 163.84-6.826667 227.555556-95.573333 236.657777-182.044444 2.275556-25.031111-2.275556-70.542222-11.377777-122.88 36.408889 6.826667 20.48-70.542222 18.204444-95.573334-2.275556-25.031111-11.377778-65.991111-40.96-56.888889-15.928889-104.675556-93.297778-131.982222-93.297778-131.982222l-4.551111-43.235555s20.48-22.755556 106.951111-59.164445c86.471111-34.133333 59.164444-20.48 129.706667-54.613333 106.951111-52.337778 113.777778-195.697778 113.777778-195.697778z m0 0"  horiz-adv-x="1024" />

    
    <glyph glyph-name="tool-fill" unicode="&#58880;" d="M532.9351111111112 260.20977777777784C451.92533333333336 221.07022222222224 351.8008888888889 234.72355555555555 284.4444444444444 302.08000000000004c-60.07466666666666 60.07466666666666-77.36888888888889 145.63555555555556-53.70311111111111 220.27377777777778 13.653333333333334 2.7306666666666666 17.29422222222222 3.640888888888889 30.947555555555553 6.371555555555555l68.26666666666667-72.81777777777778h63.715555555555554l45.511111111111106 45.511111111111106v63.715555555555554l-72.81777777777778 68.26666666666667c2.7306666666666666 13.653333333333334 3.640888888888889 17.29422222222222 6.371555555555555 30.947555555555553C448.28444444444443 688.9244444444445 533.8453333333333 670.72 593.92 611.5555555555557c67.35644444444445-67.35644444444445 81.00977777777778-167.48088888888887 42.78044444444445-248.49066666666667L920.6897777777779 79.07555555555552c63.715555555555554 84.65066666666667 101.03466666666667 191.14666666666665 101.03466666666667 304.9244444444445 0 281.25866666666667-228.4657777777778 509.72444444444443-509.72444444444443 509.72444444444443S2.27555555555557 665.2586666666666 2.27555555555557 384s228.4657777777778-509.72444444444443 509.72444444444443-509.72444444444443c114.68799999999999 0 220.27377777777778 37.319111111111106 304.9244444444445 101.03466666666667L532.9351111111112 260.20977777777784z"  horiz-adv-x="1024" />

    
    <glyph glyph-name="xitongguanli" unicode="&#59008;" d="M889.018182 588.8l-74.472727 102.4c-13.963636 23.272727-41.890909 27.927273-65.163637 13.963636l-65.163636-46.545454c-23.272727-13.963636-32.581818-4.654545-27.927273 18.618182l13.963636 79.127272c4.654545 23.272727-13.963636 51.2-37.236363 55.854546l-125.672727 23.272727c-23.272727 4.654545-51.2-13.963636-55.854546-37.236364l-13.963636-79.127272c-4.654545-23.272727-18.618182-27.927273-37.236364-9.309091l-46.545454 65.163636c-13.963636 23.272727-41.890909 27.927273-65.163637 13.963637l-102.4-74.472728c-23.272727-13.963636-27.927273-41.890909-9.309091-65.163636l46.545455-65.163636c13.963636-23.272727 4.654545-32.581818-18.618182-27.927273l-79.127273 13.963636c-23.272727 4.654545-51.2-13.963636-55.854545-37.236363l-23.272727-125.672728c-4.654545-23.272727 13.963636-51.2 37.236363-55.854545l79.127273-13.963637c23.272727-4.654545 27.927273-18.618182 9.309091-37.236363l-65.163637-46.545455c-23.272727-13.963636-27.927273-41.890909-9.30909-65.163636l74.472727-102.4c13.963636-23.272727 41.890909-27.927273 65.163636-13.963636l65.163637 46.545454c23.272727 13.963636 32.581818 4.654545 27.927272-18.618182l-13.963636-79.127272c-4.654545-23.272727 13.963636-51.2 37.236364-55.854546l125.672727-23.272727c23.272727-4.654545 51.2 13.963636 55.854545 37.236363l13.963637 79.127273c0 13.963636 4.654545 18.618182 13.963636 23.272727l-9.309091 69.818182c-93.090909-23.272727-200.145455 13.963636-260.654545 97.745455-79.127273 111.709091-51.2 265.309091 60.509091 339.781818s265.309091 51.2 339.781818-60.509091c13.963636-18.618182 23.272727-41.890909 32.581818-60.509091l74.472727-4.654545c0 4.654545 4.654545 9.309091 13.963637 13.963636l65.163636 46.545455c18.618182 13.963636 23.272727 41.890909 9.309091 65.163636zM646.981818 342.109091c13.963636 55.854545 4.654545 116.363636-41.890909 162.909091-41.890909 46.545455-102.4 60.509091-158.254545 46.545454l41.890909-41.890909c32.581818-32.581818 32.581818-83.781818 0-116.363636s-83.781818-32.581818-116.363637 0l-41.890909 41.890909c-13.963636-55.854545-4.654545-116.363636 41.890909-162.909091s102.4-60.509091 158.254546-46.545454l158.254545-162.909091c18.618182-18.618182 46.545455-18.618182 65.163637 0l51.2 51.2c18.618182 18.618182 18.618182 46.545455 0 65.163636l-158.254546 162.909091z m83.781818-181.527273c-9.309091-9.309091-23.272727-9.309091-27.927272 0-9.309091 9.309091-9.309091 23.272727 0 27.927273 9.309091 9.309091 23.272727 9.309091 27.927272 0 9.309091-4.654545 9.309091-18.618182 0-27.927273z"  horiz-adv-x="1024" />

    
    <glyph glyph-name="tongzhi" unicode="&#58935;" d="M878.387243 40.29927299999997l-16.711437 35.250801c-24.326593 57.648317-40.243279 118.533437-40.243279 180.914133V443.440119c0 177.337755-138.293826 321.621111-316.036182 321.62111-177.73513 0-316.043406-144.283356-316.043406-321.62111v-186.968687c0-62.467396-15.042461-123.30194-39.325704-180.878008l-17.585663-35.207451a17.137713 17.137713 0 0 1 1.546151-16.407987c3.309052-4.956354 8.612206-7.680181 14.587286-7.68018h715.441699c5.989529 0 10.389558 2.731052 13.69861 7.68018 3.309052 4.978029 2.976702 10.859183 0.671925 16.321287zM820.030876 254.23167999999998c0-4.645678 0.758626-9.276907 1.510026-13.90091a338.101348 338.101348 0 0 1-1.510026 20.562365v-6.661455zM822.834178 230.23021200000005a105.196077 105.196077 0 0 1-1.293276 10.100558c0.151725-3.366852 0.3468-6.719255 0.4046-10.100558h0.888676zM504.009144 765.061229c-177.742355 0-316.043406-144.911931-316.043406-323.037212v-187.792337c0-8.026981 1.755676-16.039512 1.228251-24.001468h0.932025c2.788852 175.625429 139.991703 317.611233 315.906132 317.611233 165.560996 0 296.774317-125.758442 313.99873-286.94831v181.130882c0 178.12528-138.301051 323.037212-316.021732 323.037212zM878.510068 40.34984799999995l-17.238862 35.337501c-24.333818 57.778367-40.228829 118.786312-40.22883 181.311508V444.379369c0 22.404741-1.177676 44.267607-5.382629 65.386298 1.777351 0.53465 4.089353 0.975376 5.852255 1.553376-25.179143 120.368588-116.64771 216.107133-233.902322 245.773005-0.079475-0.2312-0.021675-0.47685-0.10115-0.715275-25.634319 6.733705-52.034488 8.677231-80.016933 8.677231-18.279263 0-36.616327 0.036125-53.963565-2.911677a309.750427 309.750427 0 0 0 123.872716-50.199337 184.700035 184.700035 0 0 1-1.213801-20.316715c0-85.833063 55.24239-158.292641 132.419897-181.773908 4.212178-21.16204 5.469329-43.039357 5.469329-65.480223v-187.380512c0-62.517971 15.902237-123.53314 40.236054-181.311508l16.718663-35.337501c2.304777-5.476554 2.622677-11.372158-0.686376-16.350187-3.301827-4.970804-7.709081-7.709081-13.68416-7.70908h106.958979c5.982304 0 10.671333 2.738277 13.95871 7.70908 3.309052 4.985254 3.236802 10.880858 0.932025 16.357412M506.855796-123.37599699999998c-77.033006 0-139.478727 62.445721-139.478727 139.464278h278.935779c0-77.018556-62.445721-139.464277-139.457052-139.464278M386.190983-52.81659500000001h241.315177c11.892359 19.449714 18.806689 48.617061 18.806688 68.074H367.384294c0-19.456939 6.921555-48.624286 18.806689-68.074M505.396345 894.424949c-24.066493 0-43.761857-18.149213-43.761857-40.53228v-88.824215h87.516489V853.885444c0 22.390291-19.695364 40.539505-43.754632 40.539505M899.079659 700.325182c0-69.808001-56.579016-126.387018-126.372568-126.387018-69.800776 0-126.394243 56.579016-126.394243 126.387018 0 69.808001 56.593466 126.387018 126.394243 126.387017 69.793551 0 126.372568-56.586241 126.372568-126.387017M878.502843 38.60862199999997l-17.238862 34.289875c-24.333818 56.080491-40.236054 115.289409-40.236055 175.957779v51.470938a311.332703 311.332703 0 0 1-108.931404 170.365624c1.372751-13.098935 1.965201-26.407394 1.965201-39.961504V248.85627599999998c0-60.668369 15.902237-119.884513 40.236054-175.957779l16.718663-34.289875c2.297552-5.317604 2.622677-11.047033-0.686376-15.873337-3.301827-4.819079-7.709081-7.47788-13.68416-7.47788h106.958979c5.982304 0 10.671333 2.658802 13.95871 7.47788 3.316277 4.826304 3.244027 10.555733 0.93925 15.873337zM878.025993 23.98521100000005c3.309052 4.970804 3.301827 10.859183 1.018726 16.321287l-16.097312 35.250801a536.037593 536.037593 0 0 0-20.417865 57.424342H172.150201a592.472109 592.472109 0 0 0-20.84414-57.388217l-18.864489-35.214676a17.051012 17.051012 0 0 1 1.553376-16.393537c3.301827-4.963579 8.604981-7.687406 14.572836-7.687405h715.441699c5.989529-0.007225 10.714683 2.723827 14.01651 7.687405"  horiz-adv-x="1024" />

    
    <glyph glyph-name="gengduo" unicode="&#59197;" d="M747.631 342.414L359.449-45.772c-22.971-22.971-60.21-22.971-83.181 0-22.971 22.974-22.971 60.21 0 83.181l346.593 346.597-346.593 346.589c-22.971 22.967-22.971 60.21 0 83.177 22.971 22.971 60.21 22.971 83.181 0l388.182-388.178c22.971-22.966 22.971-60.21 0-83.18z"  horiz-adv-x="1024" />

    
    <glyph glyph-name="caogao" unicode="&#58957;" d="M375.97696 10.54208h421.81632c17.83296 0 31.47264 13.6704 31.47264 31.09888v247.72096c0 58.79808 76.53888 62.63808 76.53888 0v-273.32096c0-45.5424-36.41856-82.03776-82.41664-82.03776H357.74976l-238.73024 188.12928V752.22016c0 45.17888 36.74624 81.78176 81.99168 81.78176h622.81216c45.28128 0 81.99168-36.8128 81.99168-82.1248v-106.3424c0-58.01472-76.53888-51.61472-76.53888 0v80.7424c0 17.20832-13.93664 31.1808-31.04768 31.1808H226.60608c-17.152 0-31.04768-13.83936-31.04768-30.83776v-578.9184h123.60704c31.37536 0 56.81152-25.06752 56.81152-56.48896v-80.67072z m550.27712 471.90016c-4.1984-6.30272-12.61056-6.30272-16.80896-2.10432l-65.13664 65.13664c-2.09408 4.20352-2.09408 12.60544 4.20352 16.80896 21.00736 12.60544 48.32256 10.50624 67.23584-10.50624 21.01248-21.01248 23.11168-48.32768 10.50624-69.33504z m-288.56832-129.28512l159.67232 159.67232c6.30272 6.30272 16.81408 6.30272 23.1168 0l58.8288-56.7296c6.30272-6.30272 6.30272-16.80384 0-23.1168l-159.68256-159.67744c-6.29248-6.30272-16.80384-6.30272-23.11168 0l-58.82368 58.81856c-6.30272 4.20864-6.30272 14.71488 0 21.01248v0.02048z m26.78272-123.63264l-77.73696-12.60544c-4.20352 0-6.30272 2.0992-6.30272 6.2976l12.61056 79.8464c0 4.1984 6.2976 6.29248 8.40192 2.09408l65.13664-67.23072c4.1984-2.0992 2.09408-6.30272-2.10944-8.40192z m-260.45952 440.064a22.25664 22.25664 0 0 0 18.78528 40.3456c175.39072-81.6384 245.94432-145.64352 222.58176-208.01536-16.80896-44.89728-67.52256-68.736-189.58848-106.50112-0.91648-0.29184-32.9984-10.1632-42.0352-12.98944-82.54976-25.79456-120.04352-44.79488-120.32-57.22112-0.44544-20.20864 67.66592-61.568 220.88192-116.21888a22.25152 22.25152 0 1 0-14.94528-41.91744c-175.52896 62.60224-251.5456 108.75904-250.42944 159.12448 0.96768 43.63776 42.24512 64.55808 151.53152 98.7136 9.14944 2.86208 41.32352 12.76416 42.15296 13.02016 104.0896 32.20992 151.7056 54.58944 161.07008 79.5904 10.88 29.05088-45.71648 80.39936-199.68512 152.06912z"  horiz-adv-x="1024" />

    
    <glyph glyph-name="huaban" unicode="&#58944;" d="M755.2-64c-57.6 0-108.8 19.2-147.2 57.6-38.4 38.4-57.6 89.6-57.6 147.2V345.6h204.8c57.6 0 108.8-19.2 147.2-57.6 38.4-38.4 57.6-89.6 57.6-147.2 0-57.6-19.2-108.8-57.6-147.2-38.4-38.4-96-57.6-147.2-57.6z m-486.4 0c-57.6 0-108.8 19.2-147.2 57.6-38.4 38.4-57.6 96-57.6 147.2s19.2 108.8 57.6 147.2c38.4 38.4 89.6 57.6 147.2 57.6h204.8v-204.8c0-57.6-19.2-108.8-57.6-147.2-38.4-38.4-89.6-57.6-147.2-57.6z m281.6 486.4V627.2c0 57.6 19.2 108.8 57.6 147.2 38.4 38.4 89.6 57.6 147.2 57.6 57.6 0 108.8-19.2 147.2-57.6 38.4-38.4 57.6-96 57.6-147.2 0-57.6-19.2-108.8-57.6-147.2-38.4-38.4-89.6-57.6-147.2-57.6H550.4z m-281.6 0c-57.6 0-108.8 19.2-147.2 57.6-38.4 38.4-57.6 89.6-57.6 147.2 0 57.6 19.2 108.8 57.6 147.2 38.4 38.4 96 57.6 147.2 57.6 57.6 0 108.8-19.2 147.2-57.6 38.4-38.4 57.6-89.6 57.6-147.2v-204.8H268.8z"  horiz-adv-x="1024" />

    
    <glyph glyph-name="dtx-copied" unicode="&#58888;" d="M976.3 450c-27.1 25.6-65.1 48.4-113 67.5C768.9 555.2 644.2 576 512 576c-22.4 0-44.5-0.6-66.3-1.8 44.2 59.4 91.4 109.6 138.2 146.5 63.8 50.2 120.7 69.4 152.1 51.3 26.9-15.5 39.7-61.3 35.1-125.6-1.3-17.6 12-32.9 29.6-34.2 0.8-0.1 1.5-0.1 2.3-0.1 16.6 0 30.7 12.9 31.9 29.7 3 42.4-0.3 79.2-9.9 109.4-11.1 35.2-30.3 60.8-57 76.2-29.9 17.3-67.5 19.9-108.7 7.7-35.8-10.7-74.4-32.2-114.9-64.1-62.8-49.4-126-120.5-182.3-204.2-32.2-4.1-63.2-9.5-92.7-16.2-5.7 22.1-10 43.5-13 64.1-11.6 80.3 0.2 139.2 31.6 157.3 27 15.6 73.3 3.6 127-32.9 14.6-9.9 34.5-6.1 44.5 8.5 9.9 14.6 6.1 34.5-8.5 44.5-35.4 24.1-69.1 39.8-100.1 46.7-36.1 8-68 4.2-94.9-11.3-29.9-17.3-51-48.5-61-90.3-8.7-36.3-9.3-80.6-2-131.6 3.3-23 8.2-46.9 14.5-71.4-16.3-5.1-32-10.6-46.9-16.6-47.8-19.1-85.9-41.8-113-67.5C16.5 420.5 0 386.6 0 352c0-30.2 12-59 35.8-85.7 20.4-23 49.4-44 86.2-62.4 15.8-7.9 35-1.6 43 14.2 7.9 15.8 1.6 35-14.2 43C95.6 288.70000000000005 64 321.9 64 352c0 36.2 45 75.9 120.5 106.1 13.2 5.3 27 10.2 41.4 14.7 9.9-29.1 21.6-58.8 34.9-88.8-34.5-77.5-58-153.6-67.8-221.5-7.3-51-6.7-95.3 2-131.6 10-41.8 31.1-73 61-90.3 17.7-10.2 37.6-15.4 59.5-15.4 10.5 0 21.4 1.2 32.7 3.5 30.2 6.3 62.9 20.9 97.3 43.6 14.8 9.7 18.8 29.6 9.1 44.3-9.7 14.8-29.6 18.8-44.3 9.1-51.6-34-96.2-44.8-122.3-29.8-31.4 18.1-43.2 76.9-31.6 157.4 6.9 47.6 21.2 99.9 41.9 154.1 6.3-11.9 12.9-23.7 19.7-35.5 66.1-114.5 146.5-212.1 226.3-275 40.5-31.9 79.2-53.4 114.9-64.1 17-5.1 33.4-7.6 48.9-7.6 22 0 42.2 5.1 59.8 15.2 28.1 16.2 47.8 43.6 58.6 81.4 9.3 32.4 11.7 72 7.1 117.6-8.8 88-43.4 194.7-97.3 300.5-8 15.7-27.3 22-43.1 14-15.7-8-22-27.3-14-43.1 50.5-98.8 82.7-197.5 90.7-277.8 7-70.6-5.4-120.6-34.1-137.1-31.4-18.1-88.2 1.1-152.1 51.3-73.4 58.1-148.1 149.2-210.3 256.8-15.4 26.6-29.5 53.4-42.2 80 12.7 26.6 26.8 53.4 42.2 80 8.4 14.5 17 28.7 25.8 42.6 36.4 3.6 74.2 5.4 112.8 5.4 124.2 0 240.6-19.2 327.5-53.9C915 427.9 960 388.2 960 352c0-30.6-32.5-64.2-89.1-92.1-15.8-7.8-22.4-27-14.5-42.9 5.6-11.3 16.9-17.8 28.7-17.8 4.8 0 9.6 1.1 14.1 3.3 37.6 18.5 67.2 39.7 88.2 62.9 24.3 26.9 36.6 56.1 36.6 86.7 0 34.5-16.5 68.4-47.7 97.9z m-678 10.5c-3.7 9.6-7.1 19.2-10.4 28.6 9.7 2.1 19.6 4.1 29.6 6-6.6-11.5-13-23-19.2-34.6zM441 365.1c-17-7-28.9-23.7-28.9-43.2 0-25.8 20.9-46.7 46.6-46.7 17.3 0 32.4 9.4 40.4 23.4-31.9 5.9-56.4 33.2-58.1 66.5zM565.3 275.29999999999995c25.7 0 46.6 20.9 46.6 46.7 0 19.5-12 36.2-28.9 43.2-1.6-33.3-26.1-60.6-58.1-66.5 8-14 23.1-23.4 40.4-23.4zM512.2 375.70000000000005m-53 0a53 53 0 1 1 106 0 53 53 0 1 1-106 0Z"  horiz-adv-x="1024" />

    
    <glyph glyph-name="buliangquhui" unicode="&#59037;" d="M507.12381-13.409524H121.904762c-19.504762 0-34.133333 17.066667-34.133333 34.133334v707.047619c0 19.504762 17.066667 34.133333 34.133333 34.133333h702.171428c19.504762 0 34.133333-17.066667 34.133334-34.133333v-236.495239c0-19.504762 17.066667-34.133333 34.133333-34.133333 19.504762 0 34.133333 17.066667 34.133333 34.133333V727.771429c0 58.514286-46.32381 104.838095-104.838095 104.838095H121.904762C63.390476 832.609524 17.066667 786.285714 17.066667 727.771429v-704.609524c0-58.514286 46.32381-104.838095 104.838095-104.838095h385.219048c19.504762 0 34.133333 17.066667 34.133333 34.133333 0 19.504762-14.628571 34.133333-34.133333 34.133333zM238.933333 620.495238c-19.504762 0-34.133333-17.066667-34.133333-34.133333 0-19.504762 17.066667-34.133333 34.133333-34.133334h472.990477c19.504762 0 34.133333 17.066667 34.133333 34.133334 0 19.504762-17.066667 34.133333-34.133333 34.133333H238.933333zM516.87619 410.819048H238.933333c-19.504762 0-34.133333-17.066667-34.133333-34.133334 0-19.504762 17.066667-34.133333 34.133333-34.133333h277.942857c9.752381 0 17.066667 4.87619 24.380953 9.752381 7.314286 7.314286 9.752381 14.628571 9.752381 24.380952 0 17.066667-14.628571 34.133333-34.133334 34.133334zM370.590476 128c9.752381 0 19.504762 2.438095 24.380953 9.752381 7.314286 7.314286 9.752381 14.628571 9.752381 24.380952 0 19.504762-17.066667 34.133333-34.133334 34.133334H238.933333c-19.504762 0-34.133333-17.066667-34.133333-34.133334 0-19.504762 17.066667-34.133333 34.133333-34.133333h131.657143zM938.666667 315.733333C894.780952 359.619048 836.266667 384 775.314286 384s-119.466667-24.380952-163.352381-68.266667c-43.885714-43.885714-68.266667-102.4-68.266667-163.352381s24.380952-119.466667 68.266667-163.352381c43.885714-43.885714 102.4-68.266667 163.352381-68.266666s119.466667 24.380952 163.352381 68.266666c43.885714 43.885714 68.266667 102.4 68.266666 163.352381s-24.380952 119.466667-68.266666 163.352381z m-163.352381-341.333333c-97.52381 0-177.980952 80.457143-177.980953 177.980952s80.457143 177.980952 177.980953 177.980953 177.980952-80.457143 177.980952-177.980953-80.457143-177.980952-177.980952-177.980952zM836.266667 213.333333h-70.704762v43.885715l-124.342857-58.514286 124.342857-70.704762v43.885714h65.828571c17.066667 0 34.133333-14.628571 34.133334-34.133333v-9.752381c0-17.066667-14.628571-34.133333-34.133334-34.133333h-138.971428v-41.447619h143.847619c39.009524 0 70.704762 31.695238 70.704762 70.704762v19.504761c0 39.009524-31.695238 70.704762-70.704762 70.704762z"  horiz-adv-x="1024" />

    
    <glyph glyph-name="chaosong" unicode="&#58946;" d="M545.728 286.592h-206.08a40 40 0 0 0 0 80h197.76l-21.824 21.824a40 40 0 1 0 56.576 56.576L666.432 350.72a39.872 39.872 0 0 0 0-56.576L572.16 199.872a40 40 0 0 0-56.576 56.576l30.144 30.144zM352 192v-64A96 96 0 0 1 448 32h332.8a96 96 0 0 1 96 96v512A96 96 0 0 1 780.8 736H448a96 96 0 0 1-96-96v-192h96v128a64 64 0 0 0 64 64h204.8a64 64 0 0 0 64-64v-384a64 64 0 0 0-64-64H512a64 64 0 0 0-64 64H352zM241.152 736H230.4A96 96 0 0 1 134.4 640v-512A96 96 0 0 1 230.4 32h35.584c3.84 33.472 7.296 65.792 10.304 97.088A64 64 0 0 0 224 192v384a64 64 0 0 0 56.832 63.616 540.096 540.096 0 0 1-6.08 30.144c-5.632 24.128-29.44 47.36-33.088 64A367.616 367.616 0 0 0 241.152 736zM268.8 83.2m-64 0a64 64 0 1 1 128 0 64 64 0 1 1-128 0ZM241.6 680m-64 0a64 64 0 1 1 128 0 64 64 0 1 1-128 0Z"  horiz-adv-x="1024" />

    
    <glyph glyph-name="liucheng" unicode="&#58948;" d="M708.928 606.336c81.408-55.104 133.888-141.76 141.76-252.032 26.24 0 55.168-7.872 81.408-18.368-7.872 141.76-81.408 270.4-196.928 341.312-7.872-15.744-7.872-44.608-26.24-70.912z m-55.168-593.344c-44.608-18.432-89.216-34.176-141.76-34.176-52.48 0-99.776 7.872-141.76 34.176-18.432-26.24-34.176-44.672-55.168-63.04 63.04-34.112 126.08-55.168 196.928-55.168 70.912 0 141.76 18.432 196.928 55.168-15.744 20.992-34.112 36.736-55.168 63.04zM170.688 356.928a334.72 334.72 0 0 0 141.76 252.032c-7.872 26.24-18.368 55.168-26.24 81.408-115.52-73.536-189.056-207.36-196.928-351.808 26.24 10.496 52.48 18.368 81.408 18.368z m10.496-47.296A181.504 181.504 0 0 1 0 128.51199999999994a181.504 181.504 0 0 1 181.12-181.184 181.504 181.504 0 0 1 181.248 181.12c-2.624 99.84-84.032 181.184-181.184 181.184zM512 895.232a181.504 181.504 0 0 1-181.12-181.248A181.504 181.504 0 0 1 512 532.864a181.504 181.504 0 0 1 181.12 181.12A181.504 181.504 0 0 1 512 895.168z m330.88-585.6a181.504 181.504 0 0 1-181.248-181.12 181.504 181.504 0 0 1 181.184-181.184A181.504 181.504 0 0 1 1024 128.44799999999998a181.504 181.504 0 0 1-181.12 181.184zM181.12 309.63199999999995A181.504 181.504 0 0 1 0 128.51199999999994a181.504 181.504 0 0 1 181.12-181.184 181.504 181.504 0 0 1 181.248 181.12c-2.624 99.84-84.032 181.184-181.184 181.184z"  horiz-adv-x="1024" />

    
    <glyph glyph-name="touxiang" unicode="&#59030;" d="M512 384m-512 0a512 512 0 1 1 1024 0 512 512 0 1 1-1024 0ZM232.727273 729.987879s-13.032727-148.945455 31.030303-200.145455c0 0-24.824242-59.578182-6.206061-118.535757l19.238788 7.757575s16.135758-18.618182 32.581818-27.306666c0 0 12.412121 25.444848 11.791515 83.161212 0 0 123.500606-84.402424 397.187879-60.509091v-22.341818s25.444848 16.135758 37.236364 25.444848l19.238788-9.929697s34.753939 232.727273-190.836364 303.476364c0 0-83.161212 26.375758-261.275151 19.238788 0-0.310303-80.678788-7.447273-89.987879-0.310303zM735.418182 497.881212l-219.694546-30.409697-220.935757 30.409697-21.100606-44.683636s4.344242-136.22303 30.409697-182.458182 66.715152-71.990303 70.749091-73.852121c4.033939-2.172121 48.717576-29.789091 138.705454-28.858182 92.16-1.551515 137.464242 26.996364 141.808485 29.168485 4.033939 2.172121 44.993939 27.927273 70.749091 73.852121s30.099394 182.458182 30.099394 182.458182l-20.790303 44.373333zM239.553939 377.483636a44.06303 42.201212 0 1 1 88.126061 0 44.06303 42.201212 0 1 1-88.126061 0ZM701.284848 377.483636a44.06303 42.201212 0 1 1 88.126061 0 44.06303 42.201212 0 1 1-88.126061 0ZM475.694545 172.993939v-53.372121h81.299394v71.059394zM259.413333-61.595152c74.472727-42.201212 160.73697-66.404848 252.586667-66.404848 96.193939 0 185.871515 26.375758 262.826667 72.610909-11.170909 114.812121-121.949091 205.110303-257.241212 205.110303-137.774545 0-250.414545-93.401212-258.172122-211.316364zM638.603636 123.655758c-35.995152 16.756364-77.265455 26.065455-121.018181 26.065454-44.373333 0-86.264242-9.619394-122.569697-26.68606 22.962424-28.858182 68.887273-48.717576 121.638787-48.717576 53.061818-0.310303 98.986667 19.859394 121.949091 49.338182zM516.344242 114.65697L460.179394 83.006061v76.955151l56.164848-38.477576 57.095758 38.477576V83.006061z"  horiz-adv-x="1024" />

    
    <glyph glyph-name="tubiaozhizuomoban" unicode="&#58978;" d="M904.95875 138.55499999999995c0-90.358125-71.3278125-163.6303125-159.22875-163.6303125h-478.4615625c-87.8990625 0-159.22875 73.2703125-159.22875 163.6303125v491.9240625c0 90.358125 71.3278125 163.75875 159.22875 163.75875h478.3321875c88.029375 0 159.22875-73.2703125 159.22875-163.75875v-491.9240625zM276.846875 334.03125h459.1734375v100.974375h-459.1734375zM555.561875 148.39499999999998v472.246875h-98.12625v-472.246875z"  horiz-adv-x="1024" />

    
    <glyph glyph-name="liucheng1" unicode="&#58891;" d="M1023.64191 88.508121c-13.151167 5.117186-21.492179 21.338664-37.457799 19.03593-40.783969-5.78242-43.393733 16.682025-42.47264 49.124981 2.149218 71.845285 0.153516 143.844086 0.921094 215.791715 0.409375 37.406626-17.0914 52.297636-53.628105 51.939433-101.21793-0.869922-202.538204 1.125781-303.756134-1.279296-31.368347-0.665234-40.52811 9.36445-35.615611 37.867173 0.255859 1.279296 0 2.712108 0 4.093748 0.767578 37.099595-11.923042 84.075359 6.08945 108.740193 17.296087 23.897257 67.137474 6.396482 102.548399 7.624606 31.061316 1.074609 48.306232 15.351557 48.664434 45.696467 1.023437 74.557393 0.102344 149.165959 0.409375 223.774524 0.051172 18.882415-12.792964 30.703113-21.492179 45.082405H336.045688c-16.733197-18.575384-22.515616-39.965219-22.003898-65.0906 1.228125-63.862476 0-127.878467 0.614062-191.792115 0.358203-44.928889 12.332417-56.289041 56.851931-57.312478 2.660936 0 5.321873 0.153516 8.033982 0 30.089051-2.660936 81.158563 11.769527 86.429264-6.34531 12.792964-44.161311 6.754685-94.514417 4.861326-142.206586-0.767578-16.477337-19.752336-8.750387-30.140223-8.852731-99.938634-0.614062-199.723752-0.307031-299.662386-0.358203-50.660137 0-61.406227-10.234371-61.50857-59.666384-0.204687-75.887862-0.716406-151.826895 0.307031-227.8171 0.255859-19.957024-4.196092-30.703113-26.19999-27.632802-21.389836 2.967968-37.150767-9.466793-53.423417-20.468742v-191.894458L24.255572-127.43711H256.064077c14.686323 18.063665 20.468742 38.378892 19.85468 61.917946-1.125781 39.914047 0.255859 79.828095-0.511718 119.742141-0.81875 42.882015-11.769527 53.116386-55.41912 54.753886-61.662086 2.251562-61.662086 2.251562-61.662086 63.555444 0 49.227325 0.81875 98.505822-0.409374 147.630803-0.358203 19.240618 5.78242 25.023037 24.869521 24.81835 89.141372-0.921093 178.282744-0.81875 267.475289 0 17.910149 0.102344 22.413273-6.038279 22.310929-23.027335a6785.695068 6785.695068 0 0 1 0-187.647194c0.153516-17.858978-3.428514-24.920694-23.743741-25.944131-95.026136-4.861326-95.026136-5.628904-95.026136-103.16246 0-22.61796 1.279296-45.389436-0.358203-67.853881-1.637499-25.330068 5.117186-46.668732 22.566789-64.732397h271.824896c17.500775 18.063665 23.692569 39.402329 22.61796 64.732397-1.535156 37.150767 0 74.506222-0.460547 111.759333-0.614062 47.231623-12.076558 58.642946-58.949977 59.871071-59.359352 1.535156-59.359352 1.535156-59.359352 61.303883 0 49.278497 0.869922 98.505822-0.511719 147.733146-0.56289 20.468742 4.912498 27.325771 26.455849 27.01874 87.759732-1.125781 175.570636-0.972265 263.432712-0.051172 19.087102 0.204687 25.176553-5.577732 24.869522-24.716006a5312.406177 5312.406177 0 0 1 0-187.647194c0.358203-20.468742-8.5457-23.283194-26.097646-24.050772-91.597621-4.042577-91.597621-4.451951-91.597622-98.352306 0-23.948428 1.023437-47.896857-0.255859-71.794114-1.279296-24.716006 3.837889-46.771076 19.85468-65.858178h231.808505l23.999601 24.050772v191.894459z"  horiz-adv-x="1024" />

    
    <glyph glyph-name="faqiliucheng1" unicode="&#58918;" d="M216.177778 338.488889h278.755555c34.133333 0 56.888889 22.755556 56.888889 56.888889s-22.755556 56.888889-56.888889 56.888889H216.177778c-34.133333 0-56.888889-22.755556-56.888889-56.888889s28.444444-56.888889 56.888889-56.888889zM563.2 179.2c0 34.133333-22.755556 56.888889-56.888889 56.888889H227.555556c-34.133333 0-56.888889-22.755556-56.888889-56.888889s22.755556-56.888889 56.888889-56.888889h278.755555c34.133333 0 56.888889 22.755556 56.888889 56.888889zM836.266667 452.266667h-130.844445V713.955556c0 96.711111-73.955556 170.666667-170.666666 170.666666H182.044444c-96.711111 0-170.666667-73.955556-170.666666-170.666666v-654.222223c0-96.711111 73.955556-170.666667 170.666666-170.666666H830.577778c96.711111 0 176.355556 79.644444 176.355555 176.355555v216.177778c5.688889 91.022222-73.955556 170.666667-170.666666 170.666667zM409.6 770.844444v-125.155555H307.2V770.844444h102.4z m62.577778-768h-284.444445c-34.133333 0-56.888889 22.755556-56.888889 56.888889V713.955556c0 34.133333 22.755556 56.888889 56.888889 56.888888h11.377778v-142.222222c0-51.2 39.822222-96.711111 96.711111-96.711111h142.222222c51.2 0 96.711111 39.822222 96.711112 96.711111V770.844444h11.377777c34.133333 0 56.888889-22.755556 56.888889-56.888888v-654.222223c0-34.133333-22.755556-56.888889-56.888889-56.888889H472.177778z m426.666666 56.888889c0-34.133333-28.444444-62.577778-62.577777-62.577777h-142.222223c5.688889 17.066667 11.377778 34.133333 11.377778 56.888888v284.444445h130.844445c34.133333 0 62.577778-28.444444 62.577777-62.577778v-216.177778z"  horiz-adv-x="1024" />

    
    <glyph glyph-name="fasong1" unicode="&#59001;" d="M906.4448 867.140267L75.741867 611.6352c-57.8048-17.783467-68.317867-95.061333-17.3568-127.6416l245.435733-156.893867a70.980267 70.980267 0 0 1 84.002133 5.563734l306.3296 258.491733c16.605867 14.011733 39.0144-8.379733 25.002667-25.002667L460.680533 259.771733a70.946133 70.946133 0 0 1-5.546666-83.985066l156.859733-245.4016c32.5632-50.944 109.858133-40.430933 127.6416 17.3568L995.140267 778.427733c16.7424 54.459733-34.2528 105.454933-88.695467 88.712534z"  horiz-adv-x="1024" />

    
    <glyph glyph-name="gengduo1" unicode="&#58968;" d="M500.5312 514.2528h23.1424c0.6144 0 1.2288-0.2048 2.048-0.4096s1.8432-0.6144 2.8672-1.2288c23.552-3.8912 43.8272-14.7456 60.6208-32.5632 16.7936-17.8176 25.6-38.2976 26.8288-61.44 1.024-26.4192-5.5296-49.5616-19.8656-69.632-14.336-20.0704-33.5872-33.1776-57.7536-39.1168-2.2528-0.6144-4.7104-1.024-7.3728-1.6384-2.6624-0.6144-5.12-1.024-7.3728-1.6384h-23.1424c-0.6144 0-1.2288 0.2048-2.048 0.8192s-1.8432 0.8192-2.8672 0.8192c-23.552 3.2768-43.8272 13.9264-60.6208 32.1536-16.7936 18.2272-25.6 38.7072-26.8288 61.8496-1.024 26.4192 5.5296 49.5616 19.8656 69.632 14.336 20.0704 33.5872 33.1776 57.7536 39.1168 2.2528 0.6144 4.7104 1.024 7.3728 1.6384 2.6624 0.6144 5.12 1.2288 7.3728 1.6384z m-304.9472 0h22.3232c0.6144 0 1.4336-0.2048 2.4576-0.4096s1.8432-0.6144 2.4576-1.2288c23.552-3.2768 43.8272-13.9264 60.6208-31.744 16.7936-17.8176 25.6-38.2976 26.8288-61.44 1.6384-25.1904-4.3008-47.9232-17.8176-67.9936-13.5168-20.0704-32.3584-33.5872-56.5248-40.7552-2.6624-0.6144-5.7344-1.2288-9.0112-2.048-3.2768-0.8192-6.3488-1.4336-9.0112-2.048H195.584c-1.024 0-1.8432 0.2048-2.4576 0.4096l-2.4576 1.2288c-21.504 3.8912-39.1168 11.8784-53.248 24.3712-13.9264 12.288-24.3712 29.0816-30.9248 49.7664-0.6144 2.6624-1.2288 5.5296-2.048 8.192-0.8192 2.6624-1.4336 5.5296-2.048 8.192v23.1424c0 0.6144 0.2048 1.2288 0.8192 2.048 0.6144 0.8192 0.8192 1.4336 0.8192 2.048 3.2768 21.504 12.0832 39.7312 26.4192 55.296 14.336 15.36 32.1536 25.6 53.6576 30.5152 1.6384 0 3.4816 0.2048 5.3248 0.8192 1.8432 0.6144 3.8912 1.2288 6.144 1.6384z m632.832-207.6672h-22.3232c-0.6144 0-1.4336 0.2048-2.4576 0.4096s-1.8432 0.6144-2.4576 1.2288c-23.552 3.2768-43.8272 13.7216-60.6208 31.3344-16.7936 17.6128-25.6 37.888-26.8288 61.0304-2.2528 25.8048 3.4816 48.5376 16.7936 68.4032 13.5168 19.8656 32.3584 33.1776 56.5248 40.3456 2.6624 1.024 5.7344 2.048 9.0112 2.8672 3.2768 0.8192 6.5536 1.4336 9.8304 2.048h22.3232c1.024 0 1.8432-0.2048 2.4576-0.4096l2.4576-1.2288c21.504-3.2768 39.936-12.288 55.7056-26.8288 15.5648-14.5408 25.6-32.5632 30.1056-54.0672 0.6144-1.6384 1.024-3.2768 1.2288-4.9152 0.2048-1.6384 0.6144-3.2768 1.2288-4.9152v-22.3232c0-1.024-0.2048-1.8432-0.4096-2.4576l-1.2288-2.4576c-3.2768-21.504-12.0832-39.7312-26.4192-54.8864-14.336-15.1552-31.9488-25.1904-52.8384-30.1056-2.2528-0.6144-4.3008-1.024-6.144-1.6384-1.6384-0.2048-3.6864-0.8192-5.9392-1.4336z"  horiz-adv-x="1024" />

    
    <glyph glyph-name="wodeguanzhu" unicode="&#58904;" d="M1003.198846 95.752088l-72.480532-71.218433a25.241976 25.241976 0 0 1-7.160479-22.202636l17.128484-100.581547c3.477211-20.502666-17.87544-36.137237-36.137237-26.478318l-89.557501 47.496126a24.572291 24.572291 0 0 1-23.155649 0l-89.583258-47.496126c-18.261797-9.658919-39.588691 5.975651-36.11148 26.478318l17.128484 100.581547a25.319247 25.319247 0 0 1-7.160479 22.202636l-72.480532 71.218433c-14.758829 14.527015-6.619579 39.820505 13.805816 42.808331l100.143676 14.681557a24.958648 24.958648 0 0 1 18.725425 13.728544l44.791629 91.515042a24.804105 24.804105 0 0 0 44.637087 0l44.765871-91.515042a24.958648 24.958648 0 0 1 18.751183-13.728544l100.143676-14.681557c20.399638-2.987826 28.564644-28.281316 13.805816-42.808331z m-396.324782 208.478116a519.881678 519.881678 0 0 0 101.689104-45.615856l-15.222457-31.088842a40.902304 40.902304 0 0 0-30.728242-22.511722l-164.278902-24.057149c-33.484254-4.91961-46.852198-46.414327-22.61475-70.239661l118.843345-116.83429c9.633162-9.452862 14.011872-23.078378 11.745246-36.446322l-14.475501-85.101519H41.685615s-28.796458 12.595231-28.796459 28.281316c0 173.216621 153.100312 343.471174 339.195493 403.614045-100.993661 51.643022-171.722709 157.221451-171.722709 279.026864C180.36194 754.438877 314.994398 893.733374 484.167152 896c152.920012-2.266626 297.546232-141.561123 297.546232-312.742932 0-121.805413-73.819901-227.383841-174.83932-279.026864z"  horiz-adv-x="1024" />

    
    <glyph glyph-name="shezhi" unicode="&#58910;" d="M875.52 512.64c-5.12 27.52-40.32 37.76-60.16 17.92l-168.32-167.68c-23.68-23.68-62.72-23.68-87.04 0L473.6 449.28C449.28 473.6 449.28 512 473.6 535.6800000000001l169.6 168.96c19.84 19.84 10.24 55.04-17.28 60.16-99.2 19.2-205.44-9.6-282.24-86.4C258.56 594.56 232.32 473.6 264.96 366.08000000000004c5.12-17.28 1.92-36.48-10.88-49.28L83.2 146.55999999999995c-23.68-23.68-23.68-62.72 0-86.4l87.04-86.4c23.68-23.68 62.72-23.68 87.04 0l172.16 171.52c12.8 12.8 31.36 16.64 49.28 11.52 106.88-31.36 226.56-5.12 311.04 79.36C864.64 311.03999999999996 893.44 415.36 875.52 512.64z"  horiz-adv-x="1024" />

    
    <glyph glyph-name="shijianzhou" unicode="&#58955;" d="M250.261504 632.264704c0-9.014272-7.308288-16.32256-16.32256-16.32256s-16.32256 7.308288-16.32256 16.32256V787.149824c0 9.014272 7.308288 16.32256 16.32256 16.32256s16.32256-7.308288 16.32256-16.32256v-154.88512zM250.261504-22.147072c0-9.014272-7.308288-16.32256-16.32256-16.32256s-16.32256 7.308288-16.32256 16.32256V148.099072c0 9.014272 7.308288 16.32256 16.32256 16.32256v-15.36c9.014272 0 16.32256 8.051712 16.32256-0.96256v-170.246144zM250.261504 288.200704c0-9.014272-7.308288-16.32256-16.32256-16.32256s-16.32256 7.308288-16.32256 16.32256V473.805824c0 9.014272 7.308288 16.32256 16.32256 16.32256s16.32256-7.308288 16.32256-16.32256v-185.60512zM551.146496 572.171264c-9.014272 0-16.32256 7.308288-16.32256 16.32256s7.308288 16.32256 16.32256 16.32256h185.60512c9.014272 0 16.32256-7.308288 16.32256-16.32256s-7.308288-16.32256-16.32256-16.32256H551.146496zM551.146496 503.904256c-9.014272 0-16.32256 7.308288-16.32256 16.32256s7.308288 16.32256 16.32256 16.32256h303.36512c9.014272 0 16.32256-7.308288 16.32256-16.32256s-7.308288-16.32256-16.32256-16.32256H551.146496zM234.061824 475.073536c-44.606464 0-80.896 36.289536-80.896 80.896s36.289536 80.896 80.896 80.896 80.896-36.289536 80.896-80.896-36.29056-80.896-80.896-80.896z m0 129.14688c-26.605568 0-48.25088-21.645312-48.25088-48.25088s21.645312-48.25088 48.25088-48.25088 48.25088 21.645312 48.25088 48.25088-21.645312 48.25088-48.25088 48.25088zM234.061824 138.558464c-44.606464 0-80.896 36.289536-80.896 80.896 0 44.607488 36.289536 80.897024 80.896 80.897024s80.896-36.289536 80.896-80.897024c0-44.606464-36.29056-80.896-80.896-80.896z m0 129.14688c-26.605568 0-48.25088-21.645312-48.25088-48.25088 0-26.604544 21.645312-48.249856 48.25088-48.249856s48.25088 21.645312 48.25088 48.249856c0 26.605568-21.645312 48.25088-48.25088 48.25088zM511.504384 513.752064c0-16.966656-13.753344-30.72-30.72-30.72h-80.825344c-16.966656 0-30.72 13.753344-30.72 30.72v80.825344c0 16.966656 13.753344 30.72 30.72 30.72h80.825344c16.966656 0 30.72-13.753344 30.72-30.72v-80.825344zM550.463488 237.11744c-9.014272 0-16.32256 7.308288-16.32256 16.32256s7.308288 16.32256 16.32256 16.32256h185.60512c9.014272 0 16.32256-7.308288 16.32256-16.32256s-7.308288-16.32256-16.32256-16.32256H550.463488zM550.463488 168.850432c-9.014272 0-16.32256 7.308288-16.32256 16.32256s7.308288 16.32256 16.32256 16.32256h303.36512c9.014272 0 16.32256-7.308288 16.32256-16.32256s-7.308288-16.32256-16.32256-16.32256H550.463488zM510.821376 178.697216c0-16.966656-13.753344-30.72-30.72-30.72h-80.825344c-16.966656 0-30.72 13.753344-30.72 30.72v80.82432c0 16.966656 13.753344 30.72 30.72 30.72h80.825344c16.966656 0 30.72-13.753344 30.72-30.72v-80.82432z"  horiz-adv-x="1024" />

    
    <glyph glyph-name="wode" unicode="&#58900;" d="M512 360.727273c141.963636 0 256 114.036364 256 256S730.763636 896 512 896c-214.109091 0-256-137.309091-256-279.272727s114.036364-256 256-256z m232.727273-23.272728H279.272727C151.272727 337.454545 46.545455 232.727273 46.545455 104.727273s104.727273-232.727273 232.727272-232.727273h465.454546c128 0 232.727273 104.727273 232.727272 232.727273s-104.727273 232.727273-232.727272 232.727272z"  horiz-adv-x="1024" />

    
    <glyph glyph-name="gongzhuangweihu" unicode="&#58882;" d="M512 896C229.23008 896 0 666.76992 0 384s229.23008-512 512-512 512 229.23008 512 512S794.76992 896 512 896zM413.09056 248.79359999999997c-135.88864 0-246.04928 107.48928-246.04928 240.07552 0 36.38144 5.00736 56.54016 13.31968 78.07744 8.31872 21.53728 23.3088 9.33248 33.2416-0.59648 9.92896-9.92768 77.98784-80.87296 77.98784-80.87296 10.94528-11.35744 29.19808-11.68256 40.54912-0.73088l82.52032 79.57376c11.35744 10.94656 11.69408 29.19296 0.7424 40.54912 0 0-65.52704 68.45312-79.168 82.0928-13.63968 13.63968-20.42368 22.6112 5.7152 30.86976 26.13248 8.26752 36.24576 11.11424 71.14112 11.11424 135.89376 0 246.04928-107.47776 246.04928-240.0768C659.13984 356.28288 548.9856 248.79359999999997 413.09056 248.79359999999997zM858.22208 127.32159999999999c-0.6528-14.42176-15.93984-27.7184-15.93984-27.7184l-56.5184-52.23168c0 0-9.42464-9.59616-26.44608-9.59616s-32.3776 15.39968-32.3776 15.39968S572.92544 212.40192000000002 560.6848 224.62847999999997c-4.2752 3.73632-5.56928 16.256 3.06048 20.5312 8.57216 5.32096 37.0432 21.39648 55.72992 40.08064 15.34336 15.21024 23.87072 27.80928 33.06112 40.4992 6.68288 11.0016 17.1904 8.99968 27.30368-1.1136 12.61056-12.61056 162.95936-167.74144 162.95936-167.74144S858.86336 141.74336000000005 858.22208 127.32159999999999zM766.55104 158.78656c-19.80032 0-35.8528-16.05248-35.8528-35.85152 0-19.80032 16.05248-35.84256 35.8528-35.84256 19.79904 0 35.84 16.04224 35.84 35.84256C802.39104 142.73407999999995 786.35008 158.78656 766.55104 158.78656z"  horiz-adv-x="1024" />

    
    <glyph glyph-name="tongzhi1" unicode="&#58885;" d="M552.8 824.8c-16 7.2-34.4 4.8-47.2-6.4l-256-212.8-204 0.8c-12 0-23.2-4.8-31.2-12.8S1.6 573.6 1.6 562.4L0 206.4c0-12 4.8-23.2 12.8-31.2 8-8.8 20-12.8 31.2-12.8h206.4l254.4-212c8-6.4 18.4-10.4 28.8-10.4 6.4 0 12.8 1.6 19.2 4 16 7.2 25.6 23.2 25.6 40V785.6c0 16-9.6 32-25.6 39.2z m172.8-222.4c-21.6 10.4-48 0.8-58.4-20.8-10.4-21.6-1.6-48.8 20-59.2 3.2-1.6 69.6-36 69.6-135.2 0-105.6-62.4-140.8-64.8-141.6-22.4-11.2-31.2-37.6-20-60 8-16 23.2-24.8 40-24.8 6.4 0 13.6 1.6 20 4.8 4.8 2.4 113.6 58.4 113.6 221.6 0 156.8-115.2 212.8-120 215.2zM864 732.8c-20.8 12.8-48 7.2-60.8-13.6-13.6-20.8-7.2-48 12.8-61.6 4.8-3.2 119.2-80.8 119.2-274.4 0-193.6-109.6-272-113.6-274.4-20.8-13.6-25.6-41.6-12-61.6 8.8-12.8 22.4-20 36.8-20 8.8 0 16.8 2.4 24.8 7.2 6.4 4 153.6 104.8 153.6 348.8-0.8 244.8-153.6 345.6-160.8 349.6z"  horiz-adv-x="1024" />

    
    <glyph glyph-name="guanxi-" unicode="&#59299;" d="M835.739326 476.764045l-108.44045-162.660674c18.552809-20.710112 29.914607-48.179775 29.914607-78.094382 0-64.719101-52.494382-117.213483-117.213483-117.213483S522.930337 171.146067 522.930337 235.865169c0 21.716854 5.896629 42.139326 16.251685 59.541573l-73.923595 73.923595c-17.402247-10.355056-37.824719-16.251685-59.541573-16.251685-13.519101 0-26.462921 2.301124-38.54382 6.47191l-108.44045-162.660674c18.552809-20.710112 29.914607-48.179775 29.914607-78.094382 0-64.719101-52.494382-117.213483-117.213483-117.213484s-117.213483 52.494382-117.213483 117.213484 52.494382 117.213483 117.213483 117.213483c13.519101 0 26.462921-2.301124 38.54382-6.47191l108.44045 162.660674c-18.552809 20.710112-29.914607 48.179775-29.914607 78.094382 0 64.719101 52.494382 117.213483 117.213483 117.213483s117.213483-52.494382 117.213483-117.213483c0-21.716854-5.896629-42.139326-16.251685-59.541573l73.923595-73.923596c17.402247 10.355056 37.824719 16.251685 59.541573 16.251686 13.519101 0 26.462921-2.301124 38.54382-6.47191l108.44045 162.660674c-18.552809 20.710112-29.914607 48.179775-29.914607 78.094382 0 64.719101 52.494382 117.213483 117.213483 117.213483s117.213483-52.494382 117.213483-117.213483-52.494382-117.213483-117.213483-117.213483c-13.662921 0-26.606742 2.301124-38.68764 6.61573z m0 0"  horiz-adv-x="1024" />

    
    <glyph glyph-name="dabaoxiazai" unicode="&#58881;" d="M1025.42253 608.711c2.844 48.356-25.6 91.022-82.489 110.933L516.26653 881.778C428.08953 915.91 305.77853 884.622 243.20053 813.51L35.55553 577.422C7.11253 546.133-4.26647 512 1.42253 480.712v-145.068c34.133 25.6 76.8 39.823 125.156 39.823l384-145.067H513.42253v-204.8l-76.8 28.444c-17.067-42.666-48.356-79.644-85.333-105.244L513.42253-110.933c22.756-8.534 51.2-14.223 76.8-14.223h11.378c5.689 0 11.378 0 17.066 2.845 62.578 5.689 128 34.133 164.978 79.644l207.645 236.09c14.222 11.377 36.977 48.355 36.977 76.8L1025.42253 608.71zM558.93353 347.022L166.40053 492.09c-28.445 8.533-17.067 31.289-14.222 34.133l85.333 91.022L721.06653 409.6l-31.288-31.289c-25.6-28.444-91.023-45.511-130.845-31.289z m179.2-253.155l-48.355-56.89-2.845-2.844V230.4c17.067 5.689 36.978 14.222 51.2 25.6v-162.133zM311.46653 696.889l31.29 31.289c25.6 31.289 91.022 45.51 130.844 31.289l403.91-156.445c22.756-11.378 2.845-25.6 0-28.444L795.02253 489.244 311.46653 696.89zM891.73353 327.11c0-34.133-2.844-62.578-2.844-65.422l-48.356-54.045V358.4l51.2 56.889v-88.178zM152.17853-91.022c11.377-14.222 31.288-17.067 42.666-5.69l176.356 164.979c14.222 14.222 14.222 39.822 0 54.044s-39.822 14.222-54.045 0L211.91253 25.6V275.911c0 19.911-14.222 45.511-42.667 45.511s-34.133-17.066-34.133-34.133v-250.311l-76.8 93.866c-17.067 14.223-36.978 0-42.667-5.688-8.533-11.378-8.533-31.29 0-42.667l136.534-173.511z"  horiz-adv-x="1028" />

    
    <glyph glyph-name="faqi" unicode="&#58934;" d="M161.28 407.04c-12.8 12.8-33.28 12.8-46.08 0s-12.8-33.28 0-46.08L540.16-64c12.8-12.8 33.28-12.8 46.08 0s12.8 33.28 0 46.08L161.28 407.04z m432.64 396.8c-2.56-56.32-23.04-104.96-56.32-138.24s-81.92-53.76-138.24-56.32c-56.32-2.56-104.96-20.48-138.24-56.32s-56.32-84.48-58.88-140.8l289.28-289.28c2.56 56.32 20.48 104.96 56.32 138.24 35.84 35.84 81.92 53.76 138.24 56.32 56.32 2.56 104.96 20.48 138.24 56.32s53.76 81.92 56.32 138.24v2.56L593.92 803.84z"  horiz-adv-x="1024" />

    
    <glyph glyph-name="zonghechaxun" unicode="&#58906;" d="M506.8 560c28.3 26.8 60.8 47 95.4 61.1l-193.3 0.2-67.4 82.6s-94.3 0.1-169 0.2-107.9-11.6-108-102c-0.2-90.5-0.5-381.3-0.5-381.3l349.8-0.4 26.5 25.1C394.9 350.2 417 475 506.8 560z m-72.4-433.2c-7.1-7-11-16.2-11-26s3.9-19 11-26S451 64 461.1 64c10 0 19.5 3.8 26.7 10.8l82.4 80.7-53.2 52-82.6-80.7z m456.2 394c-44.8 43.8-104.2 67.9-167.5 67.9s-122.8-24.1-167.5-67.9c-44.8-43.8-69.4-102-69.4-163.9 0-61.9 24.6-120.1 69.4-163.8 44.7-43.8 104.2-67.9 167.5-67.9s122.8 24.1 167.5 67.9C935.4 236.8 960 295 960 356.9c0 61.9-24.6 120.1-69.4 163.9zM835 247.5c-29.9-29.2-69.6-45.3-111.9-45.3-42.3 0-82 16.1-111.9 45.3-29.9 29.2-46.4 68.1-46.4 109.4 0 41.4 16.5 80.2 46.4 109.4 29.9 29.2 69.6 45.3 111.9 45.3 42.3 0 82-16.1 111.9-45.3 29.9-29.2 46.4-68.1 46.4-109.4-0.1-41.3-16.6-80.2-46.4-109.4z"  horiz-adv-x="1024" />

    
    </font>
</defs>
</svg>
